<?xml version="1.0" standalone="no"?>
<!DOCTYPE svg PUBLIC "-//W3C//DTD SVG 1.1//EN" "http://www.w3.org/Graphics/SVG/1.1/DTD/svg11.dtd" >
<svg xmlns="http://www.w3.org/2000/svg" xmlns:xlink="http://www.w3.org/1999/xlink" version="1.1">
<metadata>
Created by FontForge 20201107 at Tue Apr 28 15:18:13 2015
 By Unknown
Copyright (c) 2015 by Dogu Kaya. All rights reserved.
</metadata>
<defs>
<font id="Kollektif-Bold" horiz-adv-x="620" >
  <font-face 
    font-family="Kollektif"
    font-weight="700"
    font-stretch="normal"
    units-per-em="1000"
    panose-1="2 11 6 4 2 1 1 1 1 2"
    ascent="809"
    descent="-191"
    x-height="496"
    cap-height="709"
    bbox="-66 -226 1333 935"
    underline-thickness="80"
    underline-position="-195"
    unicode-range="U+0020-FB06"
  />
<missing-glyph horiz-adv-x="354" 
 />
    <glyph glyph-name="fl" unicode="fl" horiz-adv-x="583" 
d="M402 619q-14 3 -27.5 4t-25.5 1q-54 0 -88 -22t-34 -54v-52h103v-123h-103v-373h-137v373h-65v73l65 50v45q0 50 18.5 87t52.5 61t83 36t110 12q84 0 186 -21v-716h-138v619z" />
    <glyph glyph-name="ffi" unicode="ffi" horiz-adv-x="900" 
d="M863 0h-138v373h-158v-373h-137v373h-196v-373h-137v373h-65v73l65 50v42q0 52 15.5 89.5t41.5 62t60 36t72 11.5q23 0 46 -4t46 -12l-11 -101l-33 5q-8 1 -14.5 1.5t-12.5 0.5q-38 0 -55.5 -18.5t-17.5 -53.5v-59h196v44q0 53 18.5 90.5t49.5 61t70.5 34.5t81.5 11
q50 0 97.5 -14t82.5 -39l-37 -90q-29 11 -64.5 19.5t-68.5 8.5q-38 0 -65.5 -14.5t-27.5 -50.5v-61h296v-496z" />
    <glyph glyph-name="fi" unicode="fi" horiz-adv-x="547" 
d="M512 0h-138v373h-148v-373h-137v373h-65v73l65 50v43q0 53 18.5 90.5t49.5 61t70.5 34.5t81.5 11q50 0 97.5 -14t82.5 -39l-37 -90q-29 11 -64.5 19.5t-68.5 8.5q-38 0 -65.5 -14.5t-27.5 -50.5v-60h286v-496z" />
    <glyph glyph-name="ffl" unicode="ffl" horiz-adv-x="927" 
d="M745 616q-14 3 -27.5 4t-25.5 1q-54 0 -88 -22t-34 -54v-49h103v-123h-103v-373h-137v373h-199v-373h-137v373h-65v73l65 50v41q0 52 15.5 89.5t41.5 62t60 36t72 11.5q23 0 46 -4t46 -12l-11 -101l-33 5q-8 1 -14.5 1.5t-12.5 0.5q-38 0 -55 -18.5t-18 -53.5v-58h199v42
q0 50 18.5 87t52.5 61t83 36t110 12q84 0 186 -21v-713h-138v616z" />
    <glyph glyph-name="ff" unicode="ff" horiz-adv-x="736" 
d="M431 538q0 52 15.5 89.5t41.5 62t60 36t72 11.5q23 0 46 -4t46 -12l-11 -101l-33 5q-8 1 -14.5 1.5t-12.5 0.5q-38 0 -55.5 -18.5t-17.5 -53.5v-59h133v-123h-133v-373h-137v373h-199v-373h-137v373h-65v73l65 50v42q0 52 15.5 89.5t41.5 62t60 36t72 11.5q23 0 46 -4
t46 -12l-11 -101l-33 5q-8 1 -14.5 1.5t-12.5 0.5q-38 0 -55.5 -18.5t-17.5 -53.5v-59h199v42v0z" />
    <glyph glyph-name="f_f_j" unicode="ffj" horiz-adv-x="927" 
d="M417 539q0 52 15.5 89.5t41.5 62t60 36t72 11.5q23 0 46 -4t46 -12l-11 -101l-33 5q-8 1 -14.5 1.5t-12.5 0.5q-38 0 -55.5 -18.5t-17.5 -53.5v-60h342v-498q0 -52 -15.5 -89.5t-41.5 -62t-60.5 -36t-72.5 -11.5q-23 0 -46 4t-46 12l11 101l34 -5q8 -2 15 -2h13
q38 0 54.5 19t16.5 52v393h-204v-373h-137v373h-199v-373h-137v373h-65v73l65 50v43q0 52 15.5 89.5t41.5 62t60 36t72 11.5q23 0 46 -4t46 -12l-11 -101l-33 5q-8 1 -14.5 1.5t-12.5 0.5q-38 0 -55.5 -18.5t-17.5 -53.5v-60h199v43v0z" />
    <glyph glyph-name="f_j" unicode="fj" horiz-adv-x="586" 
d="M422 373h-204v-373h-137v373h-65v73l65 50v42q0 52 15.5 89.5t41.5 62t60 36t72 11.5q23 0 46 -4t46 -12l-11 -101l-33 5q-8 1 -14.5 1.5t-12.5 0.5q-38 0 -55.5 -18.5t-17.5 -53.5v-59h342v-498q0 -52 -15.5 -89.5t-41.5 -62t-60.5 -36t-72.5 -11.5q-23 0 -46 4t-46 12
l11 101l34 -5q8 -2 15 -2h13q38 0 54.5 19t16.5 52v393z" />
    <glyph glyph-name=".notdef" horiz-adv-x="354" 
 />
    <glyph glyph-name="a.salt" horiz-adv-x="518" 
d="M266 510q30 0 67 -9t69.5 -34t54.5 -68t22 -111v-288h-118l-20 31q-26 -22 -62 -32.5t-80 -10.5q-36 0 -67 8.5t-53.5 26t-35.5 44.5t-13 65q0 33 13 60t35 47.5t52 33t65 16.5l48 5q34 3 53.5 7t29.5 9t12.5 11.5t2.5 15.5q0 27 -22.5 42.5t-67.5 15.5q-35 0 -60 -14.5
t-54 -45.5l-92 56q49 66 103.5 92.5t117.5 26.5zM342 209q-20 -2 -40 -5q-17 -2 -36.5 -4t-36.5 -4q-34 -4 -48 -21t-14 -31q0 -21 16.5 -34.5t46.5 -13.5q11 0 30 3.5t37 13.5t31.5 26.5t13.5 43.5v26z" />
    <glyph glyph-name="b" unicode="b" horiz-adv-x="591" 
d="M332 510q52 0 97 -20.5t78 -56t51.5 -83t18.5 -101.5t-18.5 -101.5t-51.5 -83t-78 -56t-97 -20.5q-44 0 -84.5 15.5t-63.5 39.5l-20 -43h-118v730h138v-274q57 54 148 54zM313 111q27 0 50.5 11t41.5 29.5t28 43.5t10 54q0 28 -10 53.5t-28 44t-41.5 29.5t-50.5 11
t-50.5 -7.5t-41 -24t-27.5 -43t-10 -65.5q0 -35 10 -60.5t27.5 -42t41 -25t50.5 -8.5z" />
    <glyph glyph-name="c" unicode="c" horiz-adv-x="515" 
d="M289 387q-25 0 -47 -11.5t-38.5 -31t-26 -45.5t-9.5 -56t9.5 -54.5t26 -42t38.5 -27.5t47 -10q31 0 60.5 14.5t50.5 40.5l85 -84q-35 -42 -86 -67t-110 -25q-54 0 -101 20.5t-82 56t-55.5 83t-20.5 101.5t20.5 101.5t55.5 83t82 56t101 20.5q61 0 113 -26t88 -71l-96 -74
q-29 27 -52.5 37.5t-52.5 10.5z" />
    <glyph glyph-name="d" unicode="d" horiz-adv-x="590" 
d="M545 730v-730h-118l-20 43q-23 -24 -63.5 -39.5t-84.5 -15.5q-53 0 -98 20.5t-77.5 56t-51 83t-18.5 101.5t18.5 101.5t51 83t77.5 56t98 20.5q47 0 83.5 -11t64.5 -37v268h138zM407 247q0 39 -10 65.5t-28 43t-41.5 24t-50.5 7.5t-50.5 -11t-41 -29.5t-27.5 -44
t-10 -53.5q0 -29 10 -54t27.5 -43.5t41 -29.5t50.5 -11q54 0 91.5 33.5t38.5 102.5z" />
    <glyph glyph-name="e" unicode="e" horiz-adv-x="595" 
d="M290 510q56 0 102 -22.5t79 -59t51 -84t18 -97.5q0 -30 -8 -64h-354q20 -34 57 -57.5t80 -23.5t75.5 7t61.5 18l46 -85q-37 -26 -84.5 -40t-101.5 -14q-59 0 -110 20.5t-89 55.5t-60 83t-22 102q0 53 20 100.5t55.5 83t82.5 56.5t101 21zM403 290q-12 43 -43 70t-70 27
q-40 0 -72.5 -27t-44.5 -70h230z" />
    <glyph glyph-name="f" unicode="f" horiz-adv-x="379" 
d="M84 538q0 52 15.5 89.5t41.5 62t60 36t72 11.5q23 0 46 -4t46 -12l-11 -101l-33 5q-8 1 -14.5 1.5t-12.5 0.5q-38 0 -55.5 -18.5t-17.5 -53.5v-59h133v-123h-133v-373h-137v373h-65v73l65 50v42v0z" />
    <glyph glyph-name="g" unicode="g" horiz-adv-x="593" 
d="M434 496h118v-328q0 -57 -1.5 -101.5t-7.5 -80t-19.5 -63.5t-37.5 -52q-44 -43 -98.5 -59t-114.5 -16q-51 0 -96 12t-81 33v129q9 -14 25.5 -25t38 -19t46 -12.5t49.5 -4.5q33 0 62 8.5t50.5 27.5t34 47.5t12.5 69.5v10q-29 -26 -67 -41.5t-83 -15.5q-50 0 -92.5 19.5
t-73.5 53t-48.5 79t-17.5 96.5t17.5 96t48.5 78.5t73.5 53t92.5 19.5q47 0 85 -12.5t65 -39.5zM292 138q32 0 55 11.5t38 29.5t22 40t7 43q0 23 -7.5 45.5t-22.5 40t-38 28.5t-54 11q-26 0 -48 -10t-38.5 -27t-26 -39.5t-9.5 -48.5t9.5 -48.5t26 -39.5t38.5 -26.5t48 -9.5z
" />
    <glyph glyph-name="h" unicode="h" horiz-adv-x="569" 
d="M321 510q49 0 91.5 -20.5t73.5 -56t48.5 -83t17.5 -101.5v-249h-135v91q0 38 0.5 78.5t0.5 69.5q0 28 -9 55t-25 47.5t-37.5 33t-45.5 12.5q-23 0 -44 -8.5t-37 -25t-25.5 -41.5t-9.5 -59v-253h-139v730h139v-272q26 25 59.5 38.5t76.5 13.5z" />
    <glyph glyph-name="i" unicode="i" horiz-adv-x="253" 
d="M195 0h-138v496h138v-496zM126 564q-32 0 -54 22t-22 54t22 54.5t54 22.5t54 -22.5t22 -54.5t-22 -54t-54 -22z" />
    <glyph glyph-name="j" unicode="j" horiz-adv-x="273" 
d="M92 496h138v-498q0 -52 -15.5 -89.5t-41.5 -62t-60.5 -36t-72.5 -11.5q-23 0 -46 4t-46 12l11 101q16 -2 25.5 -3.5t15.5 -2.5t10 -1h11q38 0 54.5 18.5t16.5 52.5v516zM162 717q32 0 54 -22.5t22 -54.5t-22 -54t-54 -22t-54 22t-22 54t22 54.5t54 22.5z" />
    <glyph glyph-name="k" unicode="k" horiz-adv-x="536" 
d="M320 290l209 -290h-165l-131 198l-49 -53v-145h-138v730h138v-405l161 171h168z" />
    <glyph glyph-name="l" unicode="l" horiz-adv-x="227" 
d="M49 731h138v-731h-138v731z" />
    <glyph glyph-name="m" unicode="m" horiz-adv-x="816" 
d="M597 496q27 0 58 -9t57.5 -32t43.5 -63t17 -102v-290h-138v265q0 30 -6.5 51t-17.5 34t-25.5 18.5t-29.5 5.5q-14 0 -28 -5t-25 -17t-17.5 -33t-6.5 -53v-266h-138v265q0 61 -21 85t-61 24q-29 0 -52 -27t-23 -84v-263h-138v496h118l20 -46q23 22 53.5 34t65.5 12
q18 0 38 -3.5t39 -12.5t36.5 -23.5t31.5 -36.5q12 19 29 33.5t37 24t41.5 14t41.5 4.5z" />
    <glyph glyph-name="n" unicode="n" horiz-adv-x="541" 
d="M303 496q28 0 62 -8t64 -30t50.5 -61t20.5 -101v-296h-139v291q0 23 -7.5 39t-20 25.5t-28.5 14t-32 4.5q-13 0 -28.5 -4.5t-29 -14.5t-22.5 -26t-9 -38v-291h-138v496h118l20 -38q24 17 54 27.5t65 10.5z" />
    <glyph glyph-name="o" unicode="o" horiz-adv-x="574" 
d="M289 510q53 0 100 -20.5t82 -56t55.5 -83t20.5 -101.5t-20.5 -101.5t-55.5 -83t-82 -56t-100 -20.5q-54 0 -101 20.5t-82 56t-55.5 83t-20.5 101.5t20.5 101.5t55.5 83t82 56t101 20.5zM289 109q25 0 46.5 10t38 27.5t26 42t9.5 54.5t-9.5 56t-26 45.5t-38 31t-46.5 11.5
t-47 -11.5t-38.5 -31t-26 -45.5t-9.5 -56t9.5 -54.5t26 -42t38.5 -27.5t47 -10z" />
    <glyph glyph-name="p" unicode="p" horiz-adv-x="591" 
d="M332 510q53 0 98 -20.5t77.5 -56t51 -83t18.5 -101.5t-18.5 -101.5t-51 -83t-77.5 -56t-98 -20.5q-43 0 -84 15.5t-64 39.5v-241h-138v694h118l20 -34q29 26 65 37t83 11zM314 111q27 0 50.5 11t41 29.5t28 43.5t10.5 54q0 28 -10.5 53.5t-28 44t-41 29.5t-50.5 11
t-50.5 -7.5t-41 -24t-27.5 -43t-10 -63.5q0 -35 10 -60.5t27.5 -43t41 -26t50.5 -8.5z" />
    <glyph glyph-name="q" unicode="q" horiz-adv-x="591" 
d="M546 496v-694h-138v241q-23 -24 -64 -39.5t-84 -15.5q-53 0 -98 20.5t-78 56t-51.5 83t-18.5 101.5t18.5 101.5t51.5 83t78 56t98 20.5q47 0 83 -11t65 -37l20 34h118zM278 111q27 0 50.5 9t41 27t27.5 44t10 61q0 37 -10 62.5t-27.5 41.5t-41 23.5t-50.5 7.5t-50.5 -11
t-41 -29.5t-28 -44t-10.5 -53.5q0 -29 10.5 -54t28 -43.5t41 -29.5t50.5 -11z" />
    <glyph glyph-name="r" unicode="r" horiz-adv-x="412" 
d="M181 427q10 16 23 30.5t31 26t41 18.5t52 7q34 0 79 -12l-13 -123q-11 2 -22 5q-9 2 -20 3.5t-20 1.5q-32 0 -59.5 -9t-47.5 -25t-32 -38.5t-12 -48.5v-263h-138v496h125z" />
    <glyph glyph-name="s" unicode="s" horiz-adv-x="443" 
d="M360 260q55 -39 55 -111q0 -33 -15.5 -62t-42.5 -51t-63 -34.5t-77 -12.5q-31 0 -60.5 8t-54.5 22t-43.5 33.5t-27.5 43.5q23 11 51 24.5t49 24.5q9 -15 28 -27.5t52 -12.5q34 0 50 16t16 30q0 10 -11 18.5t-25 13.5q-20 8 -33 8.5t-30 5.5q-54 13 -82.5 34.5t-41.5 43.5
t-14.5 42t-1.5 32q0 32 14 61t38.5 50.5t57 34.5t69.5 13q31 0 59 -9t51 -25t39.5 -38t24.5 -49l-107 -36q-6 18 -24.5 29t-39.5 11t-34 -14t-13 -28q0 -17 12.5 -26.5t27.5 -13.5q11 -2 21.5 -3.5t20.5 -3.5q35 -8 60.5 -18t44.5 -24z" />
    <glyph glyph-name="t" unicode="t" horiz-adv-x="383" 
d="M228 178q0 -35 21.5 -54t56.5 -19q28 0 56 11v-116q-25 -8 -53 -13.5t-56 -5.5q-32 0 -61 8t-52 27.5t-36.5 52t-13.5 80.5v224h-71v93l71 30v111h138v-111h134v-123h-134v-195v0z" />
    <glyph glyph-name="u" unicode="u" horiz-adv-x="543" 
d="M359 496h138v-496h-118l-20 38q-24 -17 -54.5 -27.5t-65.5 -10.5q-27 0 -61.5 8t-64.5 30t-50.5 61t-20.5 101v296h139v-291q0 -23 7.5 -39t20 -25.5t28.5 -14t33 -4.5q13 0 28.5 4.5t29 14.5t22.5 26t9 38v291z" />
    <glyph glyph-name="v" unicode="v" horiz-adv-x="594" 
d="M436 496h149l-200 -496h-178l-200 496h148l141 -367z" />
    <glyph glyph-name="w" unicode="w" horiz-adv-x="871" 
d="M697 496h142l-149 -496h-175l-72 239l-7 71l-8 -71l-72 -239h-174l-149 496h142l103 -359l100 359h115l100 -361z" />
    <glyph glyph-name="x" unicode="x" horiz-adv-x="622" 
d="M230 259l-177 237h171l88 -132l88 132h171l-178 -238l193 -258h-171l-104 154l-104 -154h-171z" />
    <glyph glyph-name="y" unicode="y" horiz-adv-x="591" 
d="M428 496h151l-313 -694h-151l123 273l-210 421h154l129 -259z" />
    <glyph glyph-name="z" unicode="z" horiz-adv-x="498" 
d="M224 122h229v-122h-410v116l204 257h-185v123h385v-92z" />
    <glyph glyph-name="germandbls" unicode="&#xdf;" horiz-adv-x="572" 
d="M426 351q0 -8 16 -19.5t35.5 -32t36 -51.5t16.5 -79q0 -38 -13 -70.5t-34.5 -56.5t-49 -38t-57.5 -14h-109v130h31q44 0 62.5 21.5t18.5 53.5q0 16 -6.5 31.5t-19 27.5t-30 19t-39.5 7v104q18 3 33 13t26.5 24.5t18 32.5t6.5 37q0 21 -7 37.5t-19 28.5t-26.5 18t-29.5 6
q-41 0 -63 -22.5t-22 -81.5v-60t-0.5 -85.5t-0.5 -101.5v-106v-265h-139v98v82.5v120t0.5 163.5t0.5 213q2 38 20.5 71t47.5 57.5t65.5 38.5t75.5 14h20q40 0 77.5 -15t67 -42.5t47 -65.5t17.5 -84q0 -42 -11.5 -69t-25.5 -43.5t-25.5 -27t-11.5 -19.5z" />
    <glyph glyph-name="A" unicode="A" horiz-adv-x="801" 
d="M483 709l296 -709h-164l-64 152h-301l-63 -152h-165l296 709h165zM494 290l-93 223l-93 -223h186z" />
    <glyph glyph-name="N" unicode="N" horiz-adv-x="730" 
d="M532 709h151v-709h-144l-341 463v-463h-151v709h142l343 -466v466z" />
    <glyph glyph-name="Z" unicode="Z" horiz-adv-x="632" 
d="M253 138h335v-138h-546v101l331 470h-296v138h490v-127z" />
    <glyph glyph-name="T" unicode="T" horiz-adv-x="559" 
d="M23 709h513v-138h-181v-571h-151v571h-181v138z" />
    <glyph glyph-name="O" unicode="O" horiz-adv-x="765" 
d="M382 719q72 0 136 -29t111.5 -79t75 -116t27.5 -141q0 -74 -27.5 -141t-75 -117t-111.5 -79.5t-136 -29.5t-136 29.5t-111 79.5t-74.5 117t-27.5 141q0 75 27.5 141t74.5 116t111 79t136 29zM382 138q41 0 77 17t63 46.5t42.5 68.5t15.5 84t-15.5 84.5t-42.5 69t-63 46.5
t-77 17t-77 -17t-63 -46.5t-42.5 -69t-15.5 -84.5t15.5 -84t42.5 -68.5t63 -46.5t77 -17z" />
    <glyph glyph-name="P" unicode="P" horiz-adv-x="568" 
d="M353 709q42 0 79 -16.5t64.5 -45t43.5 -67t16 -82.5t-16 -82.5t-43.5 -67.5t-64.5 -45.5t-79 -16.5h-155v-286h-151v709h306zM333 424q29 0 50.5 21.5t21.5 52.5q0 30 -21.5 51.5t-50.5 21.5h-135v-147h135z" />
    <glyph glyph-name="Q" unicode="Q" horiz-adv-x="790" 
d="M679 108l77 -26l-46 -95l-100 32l-38 33q-36 -31 -86.5 -48t-102.5 -17q-72 0 -136 29.5t-111.5 79.5t-75 117t-27.5 141q0 75 27.5 141t75 116t111.5 79t136 29t135.5 -29t111 -79t75 -116t27.5 -141q0 -64 -20.5 -121t-55.5 -103zM546 231q34 54 34 123
q0 45 -15.5 84.5t-42 69t-62.5 46.5t-77 17t-77 -17t-63 -46.5t-42.5 -69t-15.5 -84.5t15.5 -84t42.5 -68.5t63 -46.5t77 -17q37 0 71 14l-68 59l87 88z" />
    <glyph glyph-name="R" unicode="R" horiz-adv-x="687" 
d="M557 498q0 -34 -9.5 -64.5t-26.5 -56t-41 -45t-52 -31.5l235 -301h-177l-219 286h-68v-286h-152v709h306q42 0 79.5 -16.5t65 -45t43.5 -67t16 -82.5zM334 424q29 0 50 21.5t21 52.5q0 30 -21 51.5t-50 21.5h-135v-147h135z" />
    <glyph glyph-name="S" unicode="S" horiz-adv-x="616" 
d="M498 365q42 -25 64 -64t22 -90q0 -48 -23 -89.5t-65 -73.5q-38 -29 -86.5 -44.5t-102.5 -16.5q-54 0 -103 15t-87 45q-57 43 -78 104l140 65q0 -10 7 -25t22 -29t39 -24t59 -10q28 0 49.5 7t36 17.5t22 24t7.5 27.5q0 16 -10.5 30t-32.5 22q-40 14 -84.5 23.5t-86.5 24
t-78 38.5t-57 67q-19 38 -19 81q0 48 22.5 93t61.5 76q37 29 83 44.5t97 15.5t97.5 -15t83.5 -44q36 -27 57 -63l-114 -78q-21 29 -52.5 46.5t-70.5 17.5q-54 0 -83.5 -24t-29.5 -63q0 -18 16.5 -32t43 -25t59.5 -19.5t65.5 -17t61.5 -17.5t47 -20z" />
    <glyph glyph-name="U" unicode="U" horiz-adv-x="640" 
d="M448 709h151v-453q0 -53 -22 -102t-60 -86t-88.5 -59t-108.5 -22q-57 0 -108 22t-88.5 59t-59.5 86t-22 102v453h151v-423q0 -30 10 -56.5t27 -47t40.5 -32.5t49.5 -12q27 0 50 12t40.5 32.5t27.5 47t10 56.5v423z" />
    <glyph glyph-name="V" unicode="V" horiz-adv-x="806" 
d="M620 709h165l-299 -709h-167l-298 709h165l217 -530z" />
    <glyph glyph-name="W" unicode="W" horiz-adv-x="1098" 
d="M923 709h158l-200 -709h-188l-146 477l-146 -477h-186l-200 709h158l140 -536l161 536h146l162 -540z" />
    <glyph glyph-name="X" unicode="X" horiz-adv-x="764" 
d="M474 382l255 -382h-182l-165 245l-164 -245h-183l256 382l-219 327h182l128 -191l128 191h183z" />
    <glyph glyph-name="Y" unicode="Y" horiz-adv-x="693" 
d="M492 709h183l-253 -377v-332h-151v332l-253 377h183l146 -218z" />
    <glyph glyph-name="B" unicode="B" horiz-adv-x="619" 
d="M491 386q42 -29 67 -74.5t25 -100.5q0 -44 -17 -82.5t-46 -67t-67.5 -45t-82.5 -16.5h-322v709h312q40 0 75 -15.5t61.5 -41.5t41.5 -61t15 -75q0 -43 -16.5 -75.5t-45.5 -54.5zM200 443h160q27 0 46 19t19 46t-19 45t-46 18h-160v-128zM370 137q30 0 51 25.5t21 59.5
q0 35 -21 59t-51 24h-170v-168h170z" />
    <glyph glyph-name="C" unicode="C" horiz-adv-x="695" 
d="M381 138q48 0 94 22t93 74l98 -93q-59 -76 -134.5 -115t-155.5 -39q-72 0 -135 29.5t-109.5 79.5t-73 116.5t-26.5 141.5t27.5 141t74.5 116t111 79t136 29q67 0 127.5 -25t118.5 -83l-88 -107q-42 39 -79.5 52.5t-78.5 13.5t-77.5 -17t-63.5 -46t-42.5 -68.5
t-15.5 -84.5t15.5 -84t42.5 -68.5t63.5 -46.5t77.5 -17z" />
    <glyph glyph-name="D" unicode="D" horiz-adv-x="683" 
d="M334 709q77 0 136 -28t98.5 -76t60 -113t20.5 -138q0 -74 -21.5 -138.5t-59.5 -112.5t-90 -75.5t-113 -27.5h-317v709h286zM335 137q43 0 73.5 17.5t50.5 47.5t29.5 69t9.5 82t-9 82.5t-29 69.5t-51 48t-74 18h-135v-434h135z" />
    <glyph glyph-name="E" unicode="E" horiz-adv-x="539" 
d="M48 709h443v-138h-291v-128h256v-138h-256v-168h291v-137h-443v709z" />
    <glyph glyph-name="F" unicode="F" horiz-adv-x="503" 
d="M47 709h443v-138h-291v-128h256v-138h-256v-305h-152v709z" />
    <glyph glyph-name="G" unicode="G" horiz-adv-x="700" 
d="M398 401h268v-260q-60 -76 -133 -115t-153 -39q-72 0 -136 29.5t-111 79.5t-74.5 116.5t-27.5 141.5t27.5 141t74.5 116t111 79t136 29q68 0 128.5 -25t117.5 -83l-88 -107q-42 39 -79 52.5t-78 13.5q-42 0 -78.5 -17t-63.5 -46t-42.5 -68.5t-15.5 -84.5t15.5 -84
t42.5 -68.5t63.5 -46.5t78.5 -17q37 0 73.5 13.5t73.5 44.5v77h-130v128z" />
    <glyph glyph-name="H" unicode="H" horiz-adv-x="722" 
d="M523 709h152v-709h-152v305h-325v-305h-151v709h151v-266h325v266z" />
    <glyph glyph-name="I" unicode="I" horiz-adv-x="351" 
d="M305 709v-128h-53v-454h53v-127h-258v127h53v454h-53v128h258z" />
    <glyph glyph-name="J" unicode="J" horiz-adv-x="498" 
d="M453 709v-429v-26q0 -44 -5.5 -84.5t-32.5 -78.5q-34 -49 -83.5 -73.5t-106.5 -24.5q-39 0 -73.5 13t-63 35.5t-49.5 53t-32 65.5l131 44q8 -29 30.5 -48t52.5 -19q35 0 54.5 23.5t24.5 53.5q0 4 0.5 28t0.5 59.5v80v89.5q0 106 -1 238h153z" />
    <glyph glyph-name="K" unicode="K" horiz-adv-x="712" 
d="M356 385l342 -385h-187l-251 289l-61 -62v-227h-152v709h152v-287l285 287h194z" />
    <glyph glyph-name="L" unicode="L" horiz-adv-x="500" 
d="M199 137h291v-137h-443v709h152v-572z" />
    <glyph glyph-name="M" unicode="M" horiz-adv-x="858" 
d="M668 709h143v-709h-151v468l-169 -237h-121l-171 230v-461h-152v709h144l240 -327z" />
    <glyph glyph-name="one" unicode="1" horiz-adv-x="367" 
d="M60 709h236v-709h-152v571h-84v138z" />
    <glyph glyph-name="two" unicode="2" horiz-adv-x="561" 
d="M286 719q47 0 88.5 -18t72 -48t48.5 -70.5t18 -85.5q0 -37 -16 -78t-50 -79l-178 -203h240v-137h-460v98q73 87 133 157q25 30 49.5 59.5t45 54t34.5 41t17 21.5q14 19 22 35t8 33q0 40 -24 61.5t-59 21.5q-17 0 -32.5 -7t-27 -19t-18 -27.5t-6.5 -31.5h-132
q0 45 18 85.5t48.5 70.5t72 48t88.5 18z" />
    <glyph glyph-name="three" unicode="3" horiz-adv-x="550" 
d="M410 438q49 -35 76 -88.5t27 -115.5q0 -51 -19.5 -95.5t-52.5 -78.5t-77.5 -53.5t-95.5 -19.5q-40 0 -76 12.5t-66.5 34.5t-53 52.5t-35.5 66.5l132 56q8 -35 34.5 -59.5t61.5 -24.5q20 0 38 8.5t31.5 23t21 34t7.5 40.5q0 22 -7.5 41.5t-21 34t-32 23t-41.5 8.5
q-28 0 -49 -14l-75 95l118 152h-181v138h369v-69l-116 -168q47 -9 83 -34z" />
    <glyph glyph-name="four" unicode="4" horiz-adv-x="684" 
d="M528 246h108v-132h-108v-114h-152v115h-264l-64 82l363 512h117v-463zM376 456l-23 -43l-104 -151l-17 -16h144v174v36z" />
    <glyph glyph-name="five" unicode="5" horiz-adv-x="561" 
d="M410 438q51 -32 77 -87t26 -117q0 -51 -19.5 -95.5t-52.5 -78.5t-77.5 -53.5t-95.5 -19.5q-40 0 -76.5 12.5t-66.5 34.5t-53 52.5t-35 66.5l131 56q8 -35 34.5 -59.5t61.5 -24.5q20 0 38 8.5t31.5 23t21 34t7.5 40.5q0 48 -30 78t-71 30q-24 0 -48 -9t-47 -23l-94 69
l36 333h348v-138h-226l-10 -120q19 8 38.5 12t39.5 4q33 0 62.5 -8.5t49.5 -20.5z" />
    <glyph glyph-name="six" unicode="6" horiz-adv-x="586" 
d="M435 438q48 -35 75.5 -88.5t27.5 -115.5q0 -51 -19.5 -95.5t-52.5 -78.5t-77.5 -53.5t-95.5 -19.5t-95.5 19.5t-77.5 53.5t-52.5 78.5t-19.5 95.5q0 35 11 67.5t27 63.5q1 3 10 19.5t22 41t29 55t33 62.5q40 74 89 166h171l-129 -234q35 0 66.5 -10t57.5 -27zM289 125
q20 0 38 8.5t31.5 23t21 34t7.5 40.5q0 45 -27.5 76t-74.5 31q-18 0 -36 -7t-32 -24l-2 -4q-9 -19 -16.5 -39t-7.5 -33q0 -21 7.5 -40.5t21 -34t31.5 -23t38 -8.5z" />
    <glyph glyph-name="seven" unicode="7" horiz-adv-x="537" 
d="M36 709h466v-72l-268 -637h-164l240 571h-274v138z" />
    <glyph glyph-name="eight" unicode="8" horiz-adv-x="573" 
d="M432 390q21 -12 39.5 -31t32 -42t21.5 -49t8 -52q0 -46 -20 -87.5t-54 -73t-79 -50t-95 -18.5t-95 18.5t-78.5 50t-53.5 73t-20 87.5q0 52 26 99.5t75 74.5q-36 26 -52.5 58.5t-16.5 70.5q0 40 17 76.5t46.5 64t68.5 43.5t83 16t83.5 -16t69 -43.5t46.5 -64t17 -76.5
q0 -38 -18.5 -70.5t-50.5 -58.5zM286 580q-31 0 -52 -22.5t-21 -51.5q0 -20 10.5 -37t29.5 -26q17 -7 33 -7q9 0 17 2t16 5q18 9 28.5 26t10.5 37q0 29 -20.5 51.5t-51.5 22.5zM286 128q20 0 37.5 8.5t30 22.5t20 32t7.5 38q0 31 -16.5 54.5t-42.5 34.5q-15 7 -36 7t-36 -7
q-26 -11 -42.5 -34.5t-16.5 -54.5q0 -20 7.5 -38t20 -32t30 -22.5t37.5 -8.5z" />
    <glyph glyph-name="nine" unicode="9" horiz-adv-x="566" 
d="M281 719q51 0 95.5 -19.5t78 -52.5t53 -77.5t19.5 -95.5q0 -35 -11 -67t-27 -64q-2 -3 -10.5 -19.5t-22 -41t-30 -55.5t-33.5 -62q-40 -74 -89 -165h-170l130 233q-52 1 -94 21.5t-71.5 54t-45.5 76.5t-16 89q0 51 19 95.5t52 77.5t77.5 52.5t95.5 19.5zM360 406
q9 18 16.5 38t7.5 33q0 22 -7.5 41t-21 33.5t-31.5 23t-38 8.5t-38 -8.5t-31.5 -23t-21 -33.5t-7.5 -41q0 -43 26.5 -75t73.5 -32q19 0 37.5 7.5t32.5 24.5z" />
    <glyph glyph-name="zero" unicode="0" horiz-adv-x="625" 
d="M316 718q60 0 111 -23t87 -67q35 -43 55.5 -102t20.5 -132v-87q0 -69 -21 -126.5t-58 -100.5q-37 -44 -87 -66.5t-108 -22.5q-57 0 -107.5 24t-88.5 69q-36 43 -57.5 100t-21.5 123v87q0 72 20 131.5t55 101.5q36 45 87.5 68t112.5 23zM437 389q0 96 -38 148
q-31 43 -85 43t-85 -43q-38 -52 -38 -148v-75q0 -42 10 -77.5t30 -61.5q34 -47 83 -47q28 0 50.5 13.5t38.5 38t25 58.5t9 76v75z" />
    <glyph glyph-name="cedilla" unicode="&#xb8;" horiz-adv-x="329" 
d="M155 -34q24 0 42 -8t31 -20.5t19.5 -29t6.5 -33.5q0 -21 -9.5 -38t-26 -28.5t-37.5 -17.5t-45 -6q-31 0 -49 5q-11 2 -18 5l8 50q7 0 13 -0.5t14 -0.5q22 0 38 8t16 25q0 31 -38 31q-8 0 -17 -2t-17 -7l-30 28l85 121h95l-81 -82v0z" />
    <glyph glyph-name="breve" unicode="&#x2d8;" horiz-adv-x="385" 
d="M337 894q0 -30 -11.5 -56t-31 -45.5t-46 -31t-56.5 -11.5t-56 11.5t-45.5 31t-31 45.5t-11.5 56h96q0 -20 14 -34t34 -14t34.5 14t14.5 34h96z" />
    <glyph glyph-name="period" unicode="." horiz-adv-x="249" 
d="M124 144q32 0 54.5 -22t22.5 -54t-22.5 -54t-54.5 -22t-54 22t-22 54t22 54t54 22z" />
    <glyph glyph-name="colon" unicode=":" horiz-adv-x="314" 
d="M160 144q32 0 54.5 -22t22.5 -54t-22.5 -54t-54.5 -22t-54 22t-22 54t22 54t54 22zM163 473q32 0 54 -22t22 -54t-22 -54.5t-54 -22.5t-54.5 22.5t-22.5 54.5t22.5 54t54.5 22z" />
    <glyph glyph-name="semicolon" unicode=";" horiz-adv-x="284" 
d="M81 127h155l-82 -271h-106zM160 473q32 0 54 -22t22 -54t-22 -54.5t-54 -22.5t-54.5 22.5t-22.5 54.5t22.5 54t54.5 22z" />
    <glyph glyph-name="parenleft" unicode="(" horiz-adv-x="321" 
d="M270 726q-60 -85 -94.5 -192t-34.5 -228q0 -123 35 -231t97 -193l-92 -27q-63 94 -98 208t-35 243q0 127 34.5 240t96.5 207l91 -27v0z" />
    <glyph glyph-name="parenright" unicode=")" horiz-adv-x="321" 
d="M142 753q62 -94 96.5 -207t34.5 -240q0 -129 -35.5 -243t-98.5 -208l-91 27q62 85 97 193t35 231q0 121 -34.5 228t-94.5 192z" />
    <glyph glyph-name="exclam" unicode="!" horiz-adv-x="280" 
d="M141 144q32 0 54 -22t22 -54t-22 -54t-54 -22t-54.5 22t-22.5 54t22.5 54t54.5 22zM80 205l-12 504h146l-11 -504h-123z" />
    <glyph glyph-name="question" unicode="?" horiz-adv-x="473" 
d="M154 144q32 0 54.5 -22t22.5 -54t-22.5 -54t-54.5 -22t-54 22t-22 54t22 54t54 22zM180 718q60 0 106 -18t76.5 -48.5t46.5 -71.5t16 -87q0 -113 -114 -181q-16 -10 -31.5 -18t-28 -19t-21.5 -27t-12 -43h-120v22q0 34 9.5 58.5t27.5 45t43.5 37.5t58.5 36
q24 14 37.5 38.5t13.5 52.5q0 22 -9.5 40.5t-26 31.5t-39 20t-47.5 7q-20 0 -34.5 -2.5t-24.5 -5.5q-11 -4 -19 -8l-40 104q59 36 132 36z" />
    <glyph glyph-name="space" unicode=" " horiz-adv-x="275" 
 />
    <glyph glyph-name="dieresis" unicode="&#xa8;" horiz-adv-x="479" 
d="M361 902q32 0 54 -22t22 -54t-22 -54.5t-54 -22.5t-54.5 22.5t-22.5 54.5t22.5 54t54.5 22zM119 902q32 0 54 -22t22 -54t-22 -54.5t-54 -22.5t-54.5 22.5t-22.5 54.5t22.5 54t54.5 22z" />
    <glyph glyph-name="Odieresis" unicode="&#xd6;" horiz-adv-x="781" 
d="M382 719q72 0 136 -29t111.5 -79t75 -116t27.5 -141q0 -74 -27.5 -141t-75 -117t-111.5 -79.5t-136 -29.5t-136 29.5t-111 79.5t-74.5 117t-27.5 141q0 75 27.5 141t74.5 116t111 79t136 29zM382 138q41 0 77 17t63 46.5t42.5 68.5t15.5 84t-15.5 84.5t-42.5 69t-63 46.5
t-77 17t-77 -17t-63 -46.5t-42.5 -69t-15.5 -84.5t15.5 -84t42.5 -68.5t63 -46.5t77 -17zM505 909q32 0 54 -22t22 -54t-22 -54.5t-54 -22.5t-54.5 22.5t-22.5 54.5t22.5 54t54.5 22zM263 909q32 0 54 -22t22 -54t-22 -54.5t-54 -22.5t-54.5 22.5t-22.5 54.5t22.5 54
t54.5 22z" />
    <glyph glyph-name="Udieresis" unicode="&#xdc;" horiz-adv-x="688" 
d="M472 709h151v-453q0 -53 -22 -102t-60 -86t-88.5 -59t-108.5 -22q-57 0 -108 22t-88.5 59t-59.5 86t-22 102v453h151v-423q0 -30 10 -56.5t27 -47t40.5 -32.5t49.5 -12q27 0 50 12t40.5 32.5t27.5 47t10 56.5v423zM466 909q32 0 54 -22t22 -54t-22 -54.5t-54 -22.5
t-54.5 22.5t-22.5 54.5t22.5 54t54.5 22zM224 909q32 0 54 -22t22 -54t-22 -54.5t-54 -22.5t-54.5 22.5t-22.5 54.5t22.5 54t54.5 22z" />
    <glyph glyph-name="odieresis" unicode="&#xf6;" horiz-adv-x="599" 
d="M290 510q53 0 100 -20.5t82 -56t55.5 -83t20.5 -101.5t-20.5 -101.5t-55.5 -83t-82 -56t-100 -20.5q-54 0 -101 20.5t-82 56t-55.5 83t-20.5 101.5t20.5 101.5t55.5 83t82 56t101 20.5zM290 109q25 0 46.5 10t38 27.5t26 42t9.5 54.5t-9.5 56t-26 45.5t-38 31t-46.5 11.5
t-47 -11.5t-38.5 -31t-26 -45.5t-9.5 -56t9.5 -54.5t26 -42t38.5 -27.5t47 -10zM415 709q32 0 54 -22t22 -54t-22 -54.5t-54 -22.5t-54.5 22.5t-22.5 54.5t22.5 54t54.5 22zM173 709q32 0 54 -22t22 -54t-22 -54.5t-54 -22.5t-54.5 22.5t-22.5 54.5t22.5 54t54.5 22z" />
    <glyph glyph-name="udieresis" unicode="&#xfc;" horiz-adv-x="581" 
d="M359 496h138v-496h-118l-20 38q-24 -17 -54.5 -27.5t-65.5 -10.5q-27 0 -61.5 8t-64.5 30t-50.5 61t-20.5 101v296h139v-291q0 -23 7.5 -39t20 -25.5t28.5 -14t33 -4.5q13 0 28.5 4.5t29 14.5t22.5 26t9 38v291zM395 710q32 0 54 -22t22 -54t-22 -54.5t-54 -22.5
t-54.5 22.5t-22.5 54.5t22.5 54t54.5 22zM153 710q32 0 54 -22t22 -54t-22 -54.5t-54 -22.5t-54.5 22.5t-22.5 54.5t22.5 54t54.5 22z" />
    <glyph glyph-name="Gbreve" unicode="&#x11e;" horiz-adv-x="724" 
d="M530 900q0 -30 -11.5 -56t-31 -45.5t-46 -31t-56.5 -11.5t-56 11.5t-45.5 31t-31 45.5t-11.5 56h96q0 -20 14 -34t34 -14t34 14t14 34h97zM398 401h268v-260q-60 -76 -133 -115t-153 -39q-72 0 -136 29.5t-111 79.5t-74.5 116.5t-27.5 141.5t27.5 141t74.5 116t111 79
t136 29q68 0 128.5 -25t117.5 -83l-88 -107q-42 39 -79 52.5t-78 13.5q-42 0 -78.5 -17t-63.5 -46t-42.5 -68.5t-15.5 -84.5t15.5 -84t42.5 -68.5t63.5 -46.5t78.5 -17q37 0 73.5 13.5t73.5 44.5v77h-130v128z" />
    <glyph glyph-name="gbreve" unicode="&#x11f;" horiz-adv-x="616" 
d="M457 709q0 -30 -11.5 -56t-31 -45.5t-46 -31t-56.5 -11.5t-56 11.5t-45.5 31t-31 45.5t-11.5 56h96q0 -20 14 -34t34 -14t34 14t14 34h97zM434 496h118v-328q0 -57 -1.5 -101.5t-7.5 -80t-19.5 -63.5t-37.5 -52q-44 -43 -98.5 -59t-114.5 -16q-51 0 -96 12t-81 33v129
q9 -14 25.5 -25t38 -19t46 -12.5t49.5 -4.5q33 0 62 8.5t50.5 27.5t34 47.5t12.5 69.5v10q-29 -26 -67 -41.5t-83 -15.5q-50 0 -92.5 19.5t-73.5 53t-48.5 79t-17.5 96.5t17.5 96t48.5 78.5t73.5 53t92.5 19.5q47 0 85 -12.5t65 -39.5zM292 138q32 0 55 11.5t38 29.5t22 40
t7 43q0 23 -7.5 45.5t-22.5 40t-38 28.5t-54 11q-26 0 -48 -10t-38.5 -27t-26 -39.5t-9.5 -48.5t9.5 -48.5t26 -39.5t38.5 -26.5t48 -9.5z" />
    <glyph glyph-name="Idotaccent" unicode="&#x130;" horiz-adv-x="387" 
d="M192 756q-32 0 -54.5 22t-22.5 54t22.5 54.5t54.5 22.5t54 -22.5t22 -54.5t-22 -54t-54 -22zM322 709v-128h-53v-454h53v-127h-258v127h53v454h-53v128h258z" />
    <glyph glyph-name="dotlessi" unicode="&#x131;" horiz-adv-x="262" 
d="M200 0h-138v496h138v-496z" />
    <glyph glyph-name="Scedilla" unicode="&#x15e;" horiz-adv-x="616" 
d="M305 -44q24 0 42 -8t31 -20.5t19.5 -29t6.5 -33.5q0 -21 -9.5 -38t-26 -28.5t-37.5 -17.5t-45 -6q-31 0 -49 5q-11 2 -18 5l8 50q7 0 13 -0.5t14 -0.5q22 0 38 8t16 25q0 31 -38 31q-8 0 -17 -2t-17 -7l-30 28l51 73q-42 5 -78.5 19t-66.5 38q-57 43 -78 104l140 65
q0 -10 7 -25t22 -29t39 -24t59 -10q45 0 73 16.5t37.5 38t0 42.5t-38.5 31q-40 14 -84.5 23.5t-86.5 24t-78 38.5t-57 67q-16 32 -18.5 67t7 68.5t29 63t47.5 51.5q37 29 83 44t97 16q51 0 97.5 -15t83.5 -44q36 -27 57 -63l-114 -78q-21 29 -52.5 46.5t-70.5 17.5
q-54 0 -83.5 -24t-29.5 -63q0 -18 16.5 -32t43 -25t59.5 -19.5t65.5 -17t61.5 -17.5t47 -20q86 -51 86 -151q1 -48 -22 -90.5t-66 -74.5q-65 -50 -153 -59l-33 -34v0z" />
    <glyph glyph-name="scedilla" unicode="&#x15f;" horiz-adv-x="465" 
d="M232 -44q24 0 42 -8t31 -20.5t19.5 -29t6.5 -33.5q0 -21 -9.5 -38t-26 -28.5t-37.5 -17.5t-45 -6q-31 0 -49 5q-11 2 -18 5l8 50q7 0 13 -0.5t14 -0.5q22 0 38 8t16 25q0 31 -38 31q-8 0 -17 -2t-17 -7l-30 28l53 76q-49 9 -88 37q-40 28 -54 66q23 11 51 24.5t49 24.5
q9 -15 28 -27.5t52 -12.5q21 0 34.5 6.5t21 15.5t9.5 18.5t-2 16.5t-13 12t-19.5 8.5t-20 5.5t-14.5 3q-88 16 -125 50q-17 14 -25.5 30.5t-13 31.5t-5 27.5t-0.5 18.5q0 33 15 63t42 53q25 20 56 31.5t66 11.5t66.5 -11.5t56.5 -31.5q38 -32 51 -78l-107 -36
q-6 18 -24.5 29t-39.5 11t-34 -14t-13 -28q0 -21 15 -28q9 -6 19.5 -9t20.5 -5q47 -8 78.5 -19.5t53.5 -27.5q55 -39 55 -111q0 -35 -17 -65.5t-48 -53.5q-41 -30 -96 -38l-35 -36v0z" />
    <glyph glyph-name="ccedilla" unicode="&#xe7;" horiz-adv-x="525" 
d="M285 -44q24 0 42 -8t31 -20.5t19.5 -29t6.5 -33.5q0 -21 -9.5 -38t-26 -28.5t-37.5 -17.5t-45 -6q-31 0 -49 5q-11 2 -18 5l8 50q7 0 13 -0.5t14 -0.5q22 0 38 8t16 25q0 31 -38 31q-8 0 -17 -2t-17 -7l-30 28l56 80q-42 10 -77.5 34t-61.5 57t-40.5 74t-14.5 87
q0 54 20.5 101.5t55.5 83t82 56t101 20.5q61 0 113 -26t88 -71l-96 -74q-29 27 -52.5 37.5t-52.5 10.5q-25 0 -47 -11.5t-38.5 -31t-26 -45.5t-9.5 -56t9.5 -54.5t26 -42t38.5 -27.5t47 -10q31 0 60.5 14.5t50.5 40.5l85 -84q-34 -41 -82 -65.5t-104 -26.5l-32 -32v0z" />
    <glyph glyph-name="Ccedilla" unicode="&#xc7;" horiz-adv-x="688" 
d="M354 -44q24 0 42 -8t31 -20.5t19.5 -29t6.5 -33.5q0 -21 -9.5 -38t-26 -28.5t-37.5 -17.5t-45 -6q-31 0 -49 5q-11 2 -18 5l8 50q7 0 13 -0.5t14 -0.5q22 0 38 8t16 25q0 31 -38 31q-8 0 -17 -2t-17 -7l-30 28l53 76q-61 12 -113 44.5t-89.5 80.5t-59 108.5t-21.5 127.5
q0 75 27.5 141t74.5 116t111 79t136 29q67 0 127.5 -25t118.5 -83l-88 -107q-42 39 -79.5 52.5t-78.5 13.5t-77.5 -17t-63.5 -46t-42.5 -68.5t-15.5 -84.5t15.5 -84t42.5 -68.5t63.5 -46.5t77.5 -17q48 0 94 22t93 74l98 -93q-56 -72 -127.5 -110.5t-146.5 -42.5l-31 -32v0z
" />
    <glyph glyph-name="comma" unicode="," horiz-adv-x="302" 
d="M81 127h155l-82 -271h-106z" />
    <glyph glyph-name="a" unicode="a" horiz-adv-x="608" 
d="M564 496v-496h-119l-14 53q-29 -39 -69.5 -52t-84.5 -13q-53 0 -97.5 20.5t-77.5 56t-51.5 83t-18.5 101.5t18.5 101.5t51.5 83t77.5 56t97.5 20.5q48 0 88 -15t66 -48l14 49h119zM426 247q0 39 -10.5 65.5t-28 43t-41 24t-50.5 7.5t-50.5 -11t-41.5 -29.5t-28 -44
t-10 -53.5q0 -29 10 -54t28 -43.5t41.5 -29.5t50.5 -11q54 0 91.5 33.5t38.5 102.5z" />
    <glyph glyph-name="ampersand" unicode="&#x26;" horiz-adv-x="697" 
d="M668 260q-26 -29 -55 -57.5t-58 -54.5l134 -148h-170l-61 66q-47 -35 -99.5 -61t-112.5 -26q-38 0 -74 12.5t-64.5 36.5t-45.5 59.5t-17 82.5q0 63 36 117t90 98l-115 131q0 49 19 88t50 66t70.5 41.5t79.5 14.5q38 0 74 -15.5t63.5 -42t44.5 -61t17 -72.5
q0 -29 -9.5 -53t-25 -44.5t-36.5 -38.5t-44 -34l113 -123q11 8 21 20t21 23l63 65zM238 99q26 0 50.5 9.5t43.5 21.5q22 13 41 31q-30 34 -60 65t-59 65q-28 -22 -51 -48q-10 -11 -22.5 -28t-12.5 -54q0 -8 4.5 -19t13 -20.5t21.5 -16t31 -6.5zM266 603q-24 0 -38 -10
t-21 -21q-8 -14 -10 -31l78 -81q23 16 36.5 28.5t20 21.5t8.5 16.5t2 13.5q0 28 -24 45.5t-52 17.5z" />
    <glyph glyph-name="percent" unicode="%" horiz-adv-x="754" 
d="M639 695l-453 -729l-80 50l454 728zM557 325q34 0 64.5 -13t53.5 -36t36 -53.5t13 -64.5q0 -35 -13 -65t-36 -53t-53.5 -36t-64.5 -13q-35 0 -65 13t-53 36t-36 53t-13 65q0 34 13 64.5t36 53.5t53 36t65 13zM557 86q30 0 51 21.5t21 50.5q0 30 -21 51t-51 21t-51 -21
t-21 -51q0 -29 21 -50.5t51 -21.5zM199 723q34 0 64.5 -13t53.5 -36t36 -53.5t13 -64.5q0 -35 -13 -65t-36 -53t-53.5 -36t-64.5 -13q-35 0 -65 13t-53 36t-36 53t-13 65q0 34 13 64.5t36 53.5t53 36t65 13zM199 484q30 0 51 21t21 51t-21 51t-51 21t-51 -21t-21 -51t21 -51
t51 -21z" />
    <glyph glyph-name="dollar" unicode="$" horiz-adv-x="567" 
d="M462 348q82 -48 82 -144q0 -41 -16 -76t-44 -62t-66.5 -46t-83.5 -28v-93h-85v89q-41 3 -77.5 16t-66 33.5t-51 47.5t-31.5 59l134 62q0 -7 5 -20t15.5 -25.5t28 -23t43.5 -13.5v146q-47 12 -86 28.5t-67 40t-44 56t-16 76.5q0 43 18 80t47.5 65t68 45t79.5 22v81h85v-81
q26 -3 53 -12.5t51 -24t44.5 -34t33.5 -42.5l-109 -75q-14 20 -32 33t-41 22v-160q35 -9 70 -19t58 -23zM238 419q3 -1 5.5 -2t5.5 -2v137q-34 -8 -51 -29.5t-17 -49.5q0 -17 16.5 -30.5t40.5 -23.5zM384 174q4 8 4 20q0 20 -14.5 34.5t-39.5 19.5v-117q20 8 32.5 19
t17.5 24z" />
    <glyph glyph-name="numbersign" unicode="#" horiz-adv-x="740" 
d="M569 419l-31 -179h136v-95h-151l-26 -153l-93 16l23 135h-175l-25 -151l-94 16l23 133h-132v96h148l30 179h-135v95h151l25 153l94 -16l-23 -135h174l26 151l93 -16l-23 -133h132v-95zM472 417h-174l-30 -178h174z" />
    <glyph glyph-name="quotedbl" unicode="&#x22;" horiz-adv-x="404" 
d="M227 709h137l-33 -270h-87zM60 439l-16 270h136l-33 -270h-87z" />
    <glyph glyph-name="asterisk" unicode="*" horiz-adv-x="488" 
d="M420 347l-84 -63l-93 160l-90 -159l-84 62l126 131l-174 30l31 100l159 -64l-20 165h105l-19 -163l158 62l31 -100l-164 -33z" />
    <glyph glyph-name="plus" unicode="+" horiz-adv-x="523" 
d="M513 343v-94h-204v-205h-95v205h-204v94h204v205h95v-205h204z" />
    <glyph glyph-name="hyphen" unicode="-" horiz-adv-x="389" 
d="M342 228h-294v94h294v-94z" />
    <glyph glyph-name="slash" unicode="/" horiz-adv-x="547" 
d="M540 695l-453 -729l-80 50l454 728z" />
    <glyph glyph-name="less" unicode="&#x3c;" horiz-adv-x="501" 
d="M50 203v99l410 203v-118l-301 -134l301 -134v-117z" />
    <glyph glyph-name="equal" unicode="=" horiz-adv-x="522" 
d="M48 450h426v-95h-426v95zM48 243h426v-95h-426v95z" />
    <glyph glyph-name="greater" unicode="&#x3e;" horiz-adv-x="502" 
d="M52 2v117l301 134l-301 134v118l410 -203v-99z" />
    <glyph glyph-name="at" unicode="@" horiz-adv-x="836" 
d="M420 726q87 0 158 -28t121.5 -78.5t78.5 -121.5t28 -157q0 -51 -9.5 -87t-23.5 -60t-29.5 -37.5t-27.5 -19.5q-26 -13 -57 -13q-33 0 -64 16t-55 47q-26 -27 -59.5 -42t-74.5 -15q-42 0 -78.5 16t-63.5 43.5t-43 64t-16 78.5t16 78.5t43 64t63.5 43.5t78.5 16
q32 0 61 -10t52 -28q0 6 2 12q2 5 5.5 10t11.5 8l78 -8l-18 -214v-8q0 -18 5.5 -32.5t14.5 -24t20 -15t21 -5.5q22 0 35.5 29.5t16.5 77.5q0 84 -24.5 142.5t-65 95t-93 52.5t-108.5 16q-59 0 -112 -24t-93 -65t-63 -95t-23 -115q0 -63 22.5 -116.5t63 -92.5t96 -61
t122.5 -22q60 0 113 22l36 -87q-72 -30 -150 -30q-87 0 -160 29.5t-126 81.5t-82.5 123t-29.5 153q0 79 30.5 150.5t83 125.5t123 85.5t149.5 31.5zM406 225q25 0 43 9.5t29.5 24.5t17 34t5.5 39q0 19 -5.5 38.5t-17 34.5t-29.5 24.5t-43 9.5q-22 0 -41.5 -8.5t-34 -23
t-23 -34t-8.5 -41.5t8.5 -41.5t23 -34t34 -23t41.5 -8.5z" />
    <glyph glyph-name="grave" unicode="`" horiz-adv-x="242" 
d="M171 710l14 -179h-102l-63 179h151z" />
    <glyph glyph-name="underscore" unicode="_" horiz-adv-x="597" 
d="M48 0h501v-95h-501v95z" />
    <glyph glyph-name="asciicircum" unicode="^" horiz-adv-x="452" 
d="M428 414h-106l-96 195l-96 -195h-106l151 305h102z" />
    <glyph glyph-name="bracketright" unicode="]" horiz-adv-x="312" 
d="M265 -158h-221v95h126v791h-126v95h221v-981z" />
    <glyph glyph-name="backslash" unicode="\" horiz-adv-x="547" 
d="M7 695l79 49l454 -728l-80 -50z" />
    <glyph glyph-name="bracketleft" unicode="[" horiz-adv-x="325" 
d="M48 823h220v-95h-125v-791h125v-95h-220v981z" />
    <glyph glyph-name="asciitilde" unicode="~" horiz-adv-x="594" 
d="M396 304q21 0 39.5 5t33.5 12.5t25 15.5t15 14l58 -52l-17.5 -17.5t-38 -30.5t-54 -28.5t-65.5 -12.5q-36 0 -59.5 11.5t-43 25t-38.5 25t-45 11.5q-24 0 -44 -7t-35 -15.5t-23.5 -15.5t-9.5 -8l-67 39q1 1 12 17.5t33 35t55.5 34t78.5 15.5q40 0 68.5 -11.5t50 -25.5
t38 -25.5t33.5 -11.5z" />
    <glyph glyph-name="braceright" unicode="}" horiz-adv-x="301" 
d="M87 206q1 32 16.5 60t44.5 45l19 9q2 2 8.5 4t11.5 2q-24 9 -43 25.5t-31.5 38.5t-19 46.5t-6.5 48.5v196q0 10 -2.5 22t-8.5 22t-15.5 16.5t-23.5 6.5v78q30 0 56.5 -11.5t46 -31t31 -46t11.5 -56.5v-214q0 -6 3.5 -19.5t15.5 -29t34 -29t60 -17.5v-98q-39 -4 -62 -15
t-34 -23.5t-14 -23t-3 -12.5v-220q0 -30 -11.5 -56.5t-31 -46t-46 -31t-56.5 -11.5v78q15 0 25 6.5t15.5 16.5t7.5 21.5t2 22.5v226z" />
    <glyph glyph-name="bar" unicode="|" horiz-adv-x="188" 
d="M48 816h94v-976h-94v976z" />
    <glyph glyph-name="braceleft" unicode="{" horiz-adv-x="301" 
d="M214 546q0 -15 0.5 -30.5t0.5 -30.5q0 -20 -5.5 -46t-17.5 -49t-31.5 -39t-46.5 -16q24 -9 43 -26t31.5 -38.5t19 -46t6.5 -48.5v-196q0 -11 2.5 -22.5t8.5 -21.5t15.5 -16.5t23.5 -6.5v-78q-30 0 -56.5 11.5t-46 31t-30.5 46t-11 56.5v214q-1 6 -4.5 19.5t-15 29
t-34 28.5t-60.5 18v98q39 4 62 15t34 23.5t14.5 23t3.5 12.5v220q0 30 11 56.5t30.5 46t46 31t56.5 11.5v-78q-15 0 -25 -6.5t-15.5 -16.5t-7.5 -22t-2 -22v-135z" />
    <glyph glyph-name="degree" unicode="&#xb0;" horiz-adv-x="386" 
d="M193 667q33 0 62 -12.5t50.5 -33.5t34 -50t12.5 -62t-12.5 -62t-34 -50.5t-50.5 -34t-62 -12.5t-62 12.5t-50.5 34t-34 50.5t-12.5 62t12.5 62t34 50t50.5 33.5t62 12.5zM193 440q29 0 49 20t20 49q0 28 -20 48t-49 20t-49 -20t-20 -48q0 -29 20 -49t49 -20z" />
    <glyph glyph-name="cent" unicode="&#xa2;" horiz-adv-x="471" 
d="M213 0v73q-41 11 -76 33t-60.5 53t-40 70t-14.5 83q0 43 15 83t40.5 71.5t60.5 53.5t75 30v98h91v-96q43 -6 81.5 -29.5t66.5 -57.5l-90 -69q-32 29 -58 38v-246q18 6 34.5 17t29.5 28l79 -79q-26 -32 -63 -53.5t-80 -29.5v-71h-91zM184 216q7 -7 14 -12t15 -10v232
q-29 -20 -45.5 -50.5t-16.5 -69.5q0 -54 33 -90z" />
    <glyph glyph-name="sterling" unicode="&#xa3;" horiz-adv-x="554" 
d="M369 123q16 0 34.5 6.5t35 15.5t29.5 18t20 14l77 -98q-29 -22 -62 -40q-28 -15 -63.5 -27t-70.5 -12h-314l5 66q1 3 3 38t7 86l6 69h-50v125h57v5v24.5t1 24.5q0 13 1 25q0 78 22 125t54.5 72.5t69 33.5t66.5 8q55 0 95 -21t66.5 -52t40.5 -65t19 -59l-123 -24
q-1 4 -5.5 19.5t-15 33t-29.5 31.5t-48 14q-25 0 -42.5 -7t-28 -28t-15.5 -59t-5 -101h177v-125h-185l-10 -136h181v0z" />
    <glyph glyph-name="AE" unicode="&#xc6;" horiz-adv-x="978" 
d="M487 152h-233l-63 -152h-165l296 709h608v-138h-291v-128h256v-138h-256v-168h291v-137h-443v152zM487 290v281h-56l-119 -281h175z" />
    <glyph glyph-name="notequal" unicode="&#x2260;" horiz-adv-x="526" 
d="M48 450h426v-95h-426v95zM48 243h426v-95h-426v95z" />
    <glyph glyph-name="acute" unicode="&#xb4;" horiz-adv-x="244" 
d="M225 710l-63 -179h-102l14 179h151z" />
    <glyph glyph-name="trademark" unicode="&#x2122;" horiz-adv-x="681" 
d="M38 709h227v-70h-76v-239h-75v239h-76v70zM564 709h69v-309h-75v181q-16 -20 -31 -42t-30 -42h-57l-63 83v-180h-76v309h70l97 -133z" />
    <glyph glyph-name="copyright" unicode="&#xa9;" horiz-adv-x="849" 
d="M484 231q24 11 50 39l52 -49q-30 -40 -70 -61t-85 -21q-36 0 -69.5 14.5t-58.5 41t-40 62.5t-15 78q0 41 15 76.5t40.5 61.5t59 41t71.5 15q37 0 69 -13.5t62 -43.5l-46 -57q-23 20 -42.5 27.5t-42.5 7.5q-24 0 -43.5 -10t-33.5 -26t-21.5 -37t-7.5 -42q0 -27 9 -48
t24 -36t34 -23t39 -8q28 0 50 11zM424 686q73 0 137 -27.5t112 -75.5t75.5 -112t27.5 -137t-27.5 -137t-75.5 -112t-112 -75.5t-137 -27.5q-72 0 -136 27.5t-112 75.5t-75.5 112t-27.5 137t27.5 137t75.5 112t112 75.5t136 27.5zM424 68q55 0 103.5 21t84.5 57t57 84.5
t21 103.5t-21 103.5t-57 84.5t-84.5 57t-103.5 21t-103.5 -21t-84.5 -57t-57 -84.5t-21 -103.5t21 -103.5t57 -84.5t84.5 -57t103.5 -21z" />
    <glyph glyph-name="registered" unicode="&#xae;" horiz-adv-x="850" 
d="M525 322q-7 -5 -13.5 -9t-14.5 -8l108 -138l-77 -22l-117 152h-36v-152h-81v378h163q21 0 43 -8q10 -5 18 -11t16 -13q15 -15 23 -36q9 -21 9 -45q0 -16 -5 -34q-3 -8 -6.5 -15t-8.5 -14q-7 -13 -21 -25zM474 383q11 13 11 27q0 15 -11 28q-11 11 -27 11h-72v-78h72
q15 0 27 12zM425 686q72 0 136 -27.5t112 -75.5t76 -112t28 -137t-28 -137t-76 -112t-112 -75.5t-136 -27.5q-73 0 -137 27.5t-112 75.5t-75.5 112t-27.5 137t27.5 137t75.5 112t112 75.5t137 27.5zM425 68q55 0 103.5 21t84.5 57t57 84.5t21 103.5t-21 103.5t-57 84.5
t-84.5 57t-103.5 21t-103.5 -21t-84.5 -57t-57 -84.5t-21 -103.5t21 -103.5t57 -84.5t84.5 -57t103.5 -21z" />
    <glyph glyph-name="paragraph" unicode="&#xb6;" horiz-adv-x="645" 
d="M617 709v-95h-130v-770h-98v770h-81v-770h-98v479q-39 1 -72.5 17t-58.5 42t-39.5 60.5t-14.5 73.5t14.5 73.5t39.5 60.5t58.5 41.5t72.5 17.5h407z" />
    <glyph glyph-name="bullet" unicode="&#x2022;" horiz-adv-x="374" 
d="M79 169q-44 43 -44 107t44 107q46 44 108 44q64 0 108 -44q45 -44 45 -107q0 -64 -45 -107q-44 -42 -108 -42q-63 0 -108 42z" />
    <glyph glyph-name="quoteleft" unicode="&#x2018;" horiz-adv-x="245" 
d="M224 436h-106l-82 271h155z" />
    <glyph glyph-name="quoteright" unicode="&#x2019;" horiz-adv-x="244" 
d="M69 709h155l-82 -271h-106z" />
    <glyph glyph-name="quotesingle" unicode="'" horiz-adv-x="219" 
d="M40 709h146l-32 -270h-98z" />
    <glyph glyph-name="logicalnot" unicode="&#xac;" horiz-adv-x="559" 
d="M511 137h-95v200h-408v95h503v-295z" />
    <glyph glyph-name="exclamdown" unicode="&#xa1;" horiz-adv-x="236" 
d="M118 358q-32 0 -54 22t-22 54t22 54t54 22t54.5 -22t22.5 -54t-22.5 -54t-54.5 -22zM179 297l12 -504h-146l11 504h123z" />
    <glyph glyph-name="questiondown" unicode="&#xbf;" horiz-adv-x="429" 
d="M287 358q-32 0 -54.5 22t-22.5 54t22.5 54t54.5 22t54 -22t22 -54t-22 -54t-54 -22zM261 -216q-60 0 -106 18t-76.5 48.5t-46.5 71.5t-16 87q0 113 114 181q16 10 31.5 18t28 19t21.5 27t12 43h120v-22q0 -34 -9.5 -58.5t-27.5 -45t-43.5 -37.5t-58.5 -36
q-24 -14 -37.5 -38.5t-13.5 -52.5q0 -22 9.5 -40.5t26 -31.5t39 -20t47.5 -7q20 0 34.5 2.5t24.5 5.5q11 4 19 8l40 -104q-59 -36 -132 -36z" />
    <glyph glyph-name="quotedblleft" unicode="&#x201c;" horiz-adv-x="446" 
d="M413 436h-96l-82 271h145zM220 436h-96l-82 271h145z" />
    <glyph glyph-name="quotedblright" unicode="&#x201d;" horiz-adv-x="447" 
d="M75 709h145l-82 -271h-96zM270 709h145l-82 -271h-96z" />
    <glyph glyph-name="adieresis" unicode="&#xe4;" horiz-adv-x="608" 
d="M564 496v-496h-119l-14 53q-29 -39 -69.5 -52t-84.5 -13q-53 0 -97.5 20.5t-77.5 56t-51.5 83t-18.5 101.5t18.5 101.5t51.5 83t77.5 56t97.5 20.5q48 0 88 -15t66 -48l14 49h119zM426 247q0 39 -10.5 65.5t-28 43t-41 24t-50.5 7.5t-50.5 -11t-41.5 -29.5t-28 -44
t-10 -53.5q0 -29 10 -54t28 -43.5t41.5 -29.5t50.5 -11q54 0 91.5 33.5t38.5 102.5zM432 709q32 0 54 -22t22 -54t-22 -54.5t-54 -22.5t-54.5 22.5t-22.5 54.5t22.5 54t54.5 22zM190 709q32 0 54 -22t22 -54t-22 -54.5t-54 -22.5t-54.5 22.5t-22.5 54.5t22.5 54t54.5 22z
" />
    <glyph glyph-name="Adieresis" unicode="&#xc4;" horiz-adv-x="783" 
d="M483 709l296 -709h-164l-64 152h-301l-63 -152h-165l296 709h165zM494 290l-93 223l-93 -223h186zM515 897q32 0 54 -22t22 -54t-22 -54.5t-54 -22.5t-54.5 22.5t-22.5 54.5t22.5 54t54.5 22zM273 897q32 0 54 -22t22 -54t-22 -54.5t-54 -22.5t-54.5 22.5t-22.5 54.5
t22.5 54t54.5 22z" />
    <glyph glyph-name="zero.taboldstyle" horiz-adv-x="615" 
d="M308 510q53 0 102.5 -16.5t87.5 -48.5t61 -78.5t23 -105.5v-27q0 -57 -22.5 -102t-60 -76.5t-87.5 -48t-104 -16.5q-53 0 -102.5 17.5t-87.5 49t-61.5 76.5t-23.5 100v27q0 60 23 106t61 78t88 48.5t103 16.5zM429 254q0 65 -34.5 98.5t-88.5 33.5q-51 0 -87 -33.5
t-36 -98.5q0 -30 7.5 -56t22.5 -46t38 -31.5t55 -11.5q56 0 89.5 40t33.5 105z" />
    <glyph glyph-name="one.taboldstyle" horiz-adv-x="304" 
d="M23 496h236v-496h-152v358h-84v138z" />
    <glyph glyph-name="two.taboldstyle" horiz-adv-x="535" 
d="M254 510q47 0 84.5 -18.5t64 -48t41 -65t14.5 -69.5q0 -38 -11.5 -66.5t-28 -49.5t-35 -34.5t-32.5 -21.5h143v-137h-440v98q115 45 182 92.5t67 99.5q0 45 -18.5 64t-44.5 19q-13 0 -24.5 -7t-20.5 -19t-14 -27.5t-5 -31.5h-132q0 45 15 85.5t43 70.5t66.5 48t85.5 18z
" />
    <glyph glyph-name="six.taboldstyle" horiz-adv-x="539" 
d="M411 438q48 -35 75.5 -88.5t27.5 -115.5q0 -51 -19.5 -95.5t-52.5 -78.5t-77.5 -53.5t-95.5 -19.5t-95.5 19.5t-77.5 53.5t-52.5 78.5t-19.5 95.5q0 35 11 67.5t27 63.5q1 3 10 19.5t22 41t29 55t33 62.5q40 74 89 166h171l-129 -234q35 0 66.5 -10t57.5 -27zM265 125
q20 0 38 8.5t31.5 23t21 34t7.5 40.5q0 45 -27.5 76t-74.5 31q-18 0 -36 -7t-32 -24l-2 -4q-9 -19 -16.5 -39t-7.5 -33q0 -21 7.5 -40.5t21 -34t31.5 -23t38 -8.5z" />
    <glyph glyph-name="eight.taboldstyle" horiz-adv-x="557" 
d="M425 390q21 -12 39.5 -31t32 -42t21.5 -49t8 -52q0 -46 -20 -87.5t-54 -73t-79 -50t-95 -18.5t-95 18.5t-78.5 50t-53.5 73t-20 87.5q0 52 26 99.5t75 74.5q-36 26 -52.5 58.5t-16.5 70.5q0 40 17 76.5t46.5 64t68.5 43.5t83 16t83.5 -16t69 -43.5t46.5 -64t17 -76.5
q0 -38 -18.5 -70.5t-50.5 -58.5zM279 580q-31 0 -52 -22.5t-21 -51.5q0 -28 20 -49t53 -21q32 0 52 20.5t20 49.5t-20.5 51.5t-51.5 22.5zM279 128q20 0 37.5 8.5t30 22.5t20 32t7.5 38q0 41 -27.5 68.5t-67.5 27.5t-67.5 -27.5t-27.5 -68.5q0 -20 7.5 -38t20 -32t30 -22.5
t37.5 -8.5z" />
    <glyph glyph-name="three.taboldstyle" horiz-adv-x="535" 
d="M403 225q49 -35 76 -88.5t27 -115.5q0 -51 -19.5 -95.5t-52.5 -78.5t-77.5 -53.5t-95.5 -19.5q-40 0 -76 12.5t-66.5 34.5t-53 52.5t-35.5 66.5l132 56q8 -35 34.5 -59.5t61.5 -24.5q20 0 38 8.5t31.5 23t21 34t7.5 40.5q0 22 -7.5 41.5t-21 34t-32 23t-41.5 8.5
q-28 0 -49 -14l-75 95l118 152h-181q0 11 -0.5 23t-0.5 23q0 23 0.5 46t0.5 46h369v-69l-116 -168q47 -9 83 -34z" />
    <glyph glyph-name="four.taboldstyle" horiz-adv-x="621" 
d="M488 33h108v-132h-108v-114h-152v115h-264l-64 82l363 512h117v-463zM336 243l-23 -43l-104 -151l-17 -16h144v174v36z" />
    <glyph glyph-name="five.taboldstyle" horiz-adv-x="535" 
d="M401 225q51 -32 77 -87t26 -117q0 -51 -19.5 -95.5t-52.5 -78.5t-77.5 -53.5t-95.5 -19.5q-40 0 -76.5 12.5t-66.5 34.5t-53 52.5t-35 66.5l131 56q8 -35 34.5 -59.5t61.5 -24.5q20 0 38 8.5t31.5 23t21 34t7.5 40.5q0 48 -30 78t-71 30q-24 0 -48 -9t-47 -23l-94 69
l36 333h348v-138h-226l-10 -120q19 8 38.5 12t39.5 4q33 0 62.5 -8.5t49.5 -20.5z" />
    <glyph glyph-name="seven.taboldstyle" horiz-adv-x="519" 
d="M37 496h466v-72l-268 -637h-164l240 571h-274v138z" />
    <glyph glyph-name="nine.taboldstyle" horiz-adv-x="538" 
d="M269 506q51 0 95.5 -19.5t78 -52.5t53 -77.5t19.5 -95.5q0 -35 -11 -67t-27 -64q-2 -3 -10.5 -19.5t-22 -41t-30 -55.5t-33.5 -62q-40 -74 -89 -165h-170l130 233q-52 1 -94 21.5t-71.5 54t-45.5 76.5t-16 89q0 51 19 95.5t52 77.5t77.5 52.5t95.5 19.5zM348 193
q9 18 16.5 38t7.5 33q0 22 -7.5 41t-21 33.5t-31.5 23t-38 8.5t-38 -8.5t-31.5 -23t-21 -33.5t-7.5 -41q0 -43 26.5 -75t73.5 -32q19 0 37.5 7.5t32.5 24.5z" />
    <glyph glyph-name="zero.titling" 
d="M310 718q60 0 111 -23t87 -67q35 -43 55.5 -102t20.5 -132v-87q0 -69 -21 -126.5t-58 -100.5q-37 -44 -87 -66.5t-108 -22.5q-57 0 -107.5 24t-88.5 69q-36 43 -57.5 100t-21.5 123v87q0 72 20 131.5t55 101.5q36 45 87.5 68t112.5 23zM431 389q0 96 -38 148
q-31 43 -85 43t-85 -43q-38 -52 -38 -148v-75q0 -42 10 -77.5t30 -61.5q34 -47 83 -47q28 0 50.5 13.5t38.5 38t25 58.5t9 76v75z" />
    <glyph glyph-name="one.titling" 
d="M192 709h236v-709h-152v571h-84v138z" />
    <glyph glyph-name="two.titling" 
d="M315 719q47 0 88.5 -18t72 -48t48.5 -70.5t18 -85.5q0 -37 -16 -77.5t-50 -79.5l-178 -203h240v-137h-460v98q73 87 133 157q25 30 49.5 59.5t45 54t34.5 41t17 21.5q14 19 22 35t8 33q0 40 -24 61.5t-59 21.5q-17 0 -32.5 -7t-27 -19t-18 -27.5t-6.5 -31.5h-132
q0 45 18 85.5t48.5 70.5t72 48t88.5 18z" />
    <glyph glyph-name="three.titling" 
d="M445 438q49 -35 76 -88.5t27 -115.5q0 -51 -19.5 -95.5t-52.5 -78.5t-77.5 -53.5t-95.5 -19.5q-40 0 -76 12.5t-66.5 34.5t-53 52.5t-35.5 66.5l132 56q8 -35 34.5 -59.5t61.5 -24.5q20 0 38 8.5t31.5 23t21 34t7.5 40.5q0 27 -11 50.5t-31 37.5q-16 13 -40.5 18
t-48.5 -3q-9 -3 -20 -10l-75 95l118 152h-181v138h369v-69l-116 -168q47 -9 83 -34z" />
    <glyph glyph-name="four.titling" 
d="M496 246h108v-132h-108v-114h-152v115h-264l-64 82l363 512h117v-463zM344 456l-23 -43l-104 -151l-17 -16h144v174v36z" />
    <glyph glyph-name="five.titling" 
d="M445 438q51 -32 77 -87t26 -117q0 -51 -19.5 -95.5t-52.5 -78.5t-77.5 -53.5t-95.5 -19.5q-40 0 -76.5 12.5t-66.5 34.5t-53 52.5t-35 66.5l131 56q8 -35 34.5 -59.5t61.5 -24.5q20 0 38 8.5t31.5 23t21 34t7.5 40.5q0 45 -27.5 76t-73.5 31q-26 0 -53 -15l-136 53
l36 333h348v-138h-226l-10 -120q19 8 38.5 12t39.5 4q33 0 62.5 -8.5t49.5 -20.5z" />
    <glyph glyph-name="six.titling" 
d="M452 438q48 -35 75.5 -88.5t27.5 -115.5q0 -51 -19.5 -95.5t-52.5 -78.5t-77.5 -53.5t-95.5 -19.5t-95.5 19.5t-77.5 53.5t-52.5 78.5t-19.5 95.5q0 35 11 67.5t27 63.5q1 3 10 19.5t22 41t29 55t33 62.5q40 74 89 166h171l-129 -234q35 0 66.5 -10t57.5 -27zM306 125
q20 0 38 8.5t31.5 23t21 34t7.5 40.5q0 45 -27.5 76t-74.5 31q-18 0 -36 -7t-32 -24l-2 -4q-9 -19 -16.5 -39t-7.5 -33q0 -21 7.5 -40.5t21 -34t31.5 -23t38 -8.5z" />
    <glyph glyph-name="seven.titling" 
d="M76 709h466v-72l-268 -637h-164l240 571h-274v138z" />
    <glyph glyph-name="eight.titling" 
d="M456 390q21 -12 39.5 -31t32 -42t21.5 -49t8 -52q0 -46 -20 -87.5t-54 -73t-79 -50t-95 -18.5t-95 18.5t-78.5 50t-53.5 73t-20 87.5q0 52 26 99.5t75 74.5q-36 26 -52.5 58.5t-16.5 70.5q0 40 17 76.5t46.5 64t68.5 43.5t83 16t83.5 -16t69 -43.5t46.5 -64t17 -76.5
q0 -38 -18.5 -70.5t-50.5 -58.5zM310 580q-31 0 -52 -22.5t-21 -51.5q0 -20 10.5 -37t29.5 -26q17 -7 33 -7q9 0 17 2t16 5q18 9 28.5 26t10.5 37q0 29 -20.5 51.5t-51.5 22.5zM310 128q20 0 37.5 8.5t30 22.5t20 32t7.5 38q0 31 -16.5 54.5t-42.5 34.5q-15 7 -36 7t-36 -7
q-26 -11 -42.5 -34.5t-16.5 -54.5q0 -20 7.5 -38t20 -32t30 -22.5t37.5 -8.5z" />
    <glyph glyph-name="nine.titling" 
d="M309 719q51 0 95.5 -19.5t78 -52.5t53 -77.5t19.5 -95.5q0 -35 -11 -67t-27 -64q-2 -3 -10.5 -19.5t-22 -41t-30 -55.5t-33.5 -62q-40 -74 -89 -165h-170l130 233q-52 1 -94 21.5t-71.5 54t-45.5 76.5t-16 89q0 51 19 95.5t52 77.5t77.5 52.5t95.5 19.5zM388 406
q9 18 16.5 38t7.5 33q0 22 -7.5 41t-21 33.5t-31.5 23t-38 8.5t-38 -8.5t-31.5 -23t-21 -33.5t-7.5 -41q0 -43 26.5 -75t73.5 -32q19 0 37.5 7.5t32.5 24.5z" />
    <glyph glyph-name="Adieresis.salt" horiz-adv-x="803" 
d="M486 709l296 -709h-164l-64 152h-301l-63 -152h-165l296 709h165zM497 290l-85 203l-8 20l-9 -19l-84 -204h186zM618 785q32 0 54 -22t22 -54t-22 -54.5t-54 -22.5t-54.5 22.5t-22.5 54.5t22.5 54t54.5 22zM191 785q32 0 54 -22t22 -54t-22 -54.5t-54 -22.5t-54.5 22.5
t-22.5 54.5t22.5 54t54.5 22z" />
    <glyph glyph-name="Udieresis.salt" horiz-adv-x="688" 
d="M223 784q32 0 54 -22t22 -54t-22 -54.5t-54 -22.5q-17 0 -30 6v-351q0 -30 10 -56.5t27 -47t40.5 -32.5t49.5 -12q27 0 50 12t40.5 32.5t27.5 47t10 56.5v348q-11 -3 -23 -3q-32 0 -54.5 22.5t-22.5 54.5t22.5 54t54.5 22q31 0 53 -22t23 -53h98v-453q0 -53 -22 -102
t-60 -86t-88.5 -59t-108.5 -22q-57 0 -108 22t-88.5 59t-59.5 86t-22 102v453h104q0 31 22.5 53t54.5 22z" />
    <glyph glyph-name="Odieresis.salt" horiz-adv-x="781" 
d="M382 719q72 0 136 -29t111.5 -79t75 -116t27.5 -141q0 -74 -27.5 -141t-75 -117t-111.5 -79.5t-136 -29.5t-136 29.5t-111 79.5t-74.5 117t-27.5 141q0 75 27.5 141t74.5 116t111 79t136 29zM382 138q41 0 77 17t63 46.5t42.5 68.5t15.5 84t-15.5 84.5t-42.5 69t-63 46.5
t-77 17t-77 -17t-63 -46.5t-42.5 -69t-15.5 -84.5t15.5 -84t42.5 -68.5t63 -46.5t77 -17zM660 785q32 0 54 -22t22 -54t-22 -54.5t-54 -22.5t-54.5 22.5t-22.5 54.5t22.5 54t54.5 22zM104 785q32 0 54 -22t22 -54t-22 -54.5t-54 -22.5t-54.5 22.5t-22.5 54.5t22.5 54
t54.5 22z" />
    <glyph glyph-name="ring" unicode="&#x2da;" horiz-adv-x="409" 
d="M221 801q25 0 46.5 -9.5t37.5 -25.5t25.5 -37.5t9.5 -46.5t-9.5 -46.5t-25.5 -37.5t-37.5 -25.5t-46.5 -9.5t-47 9.5t-38 25.5t-25 37.5t-9 46.5t9 46.5t25 37.5t38 25.5t47 9.5zM221 643q16 0 27 11.5t11 27.5t-11 27t-27 11q-17 0 -28 -11t-11 -27t11 -27.5t28 -11.5z
" />
    <glyph glyph-name="tilde" unicode="&#x2dc;" horiz-adv-x="833" 
d="M510 835q13 0 27 5.5t27 13.5t22.5 16t13.5 14l45 -54q-2 -3 -13.5 -18t-29.5 -31.5t-41.5 -30t-50.5 -13.5q-28 0 -46 12t-33 26.5t-29.5 26.5t-34.5 12q-25 0 -48 -14t-38 -34q-20 15 -30.5 23t-15.5 12q-6 4 -6 6q2 4 11.5 21t26.5 36t42 34t58 15q30 0 51.5 -12
t37.5 -27t28.5 -27t25.5 -12z" />
    <glyph glyph-name="circumflex" unicode="&#x2c6;" horiz-adv-x="833" 
d="M375 737h-121l121 135h131l116 -135h-122l-60 88z" />
    <glyph glyph-name="caron" unicode="&#x2c7;" horiz-adv-x="833" 
d="M501 871h121l-121 -135h-131l-116 135h122l60 -88z" />
    <glyph glyph-name="dotaccent" unicode="&#x2d9;" horiz-adv-x="345" 
d="M177 750q-32 0 -54.5 22t-22.5 54t22.5 54.5t54.5 22.5t54 -22.5t22 -54.5t-22 -54t-54 -22z" />
    <glyph glyph-name="ogonek" unicode="&#x2db;" horiz-adv-x="297" 
d="M188 -38q-15 -15 -31 -38.5t-16 -46.5q0 -11 6 -17.5t16 -10t21 -4.5t22 -1q8 0 14 0.5t13 0.5l8 -50q-8 -3 -18 -5q-20 -5 -49 -5q-24 0 -45 6t-37.5 17.5t-26 28.5t-9.5 38q0 26 12.5 46.5t29.5 40.5h90z" />
    <glyph glyph-name="radical" unicode="&#x221a;" horiz-adv-x="659" 
d="M178 361l118 -251l293 620h102l-343 -730h-104l-118 251l-46 -100l-85 40l80 169z" />
    <glyph glyph-name="hungarumlaut" unicode="&#x2dd;" horiz-adv-x="488" 
d="M225 710l-63 -179h-102l14 179h151zM439 710l-63 -179h-102l14 179h151z" />
    <glyph glyph-name="Aring" unicode="&#xc5;" horiz-adv-x="801" 
d="M400 867q25 0 46.5 -9.5t37.5 -25.5t25.5 -37.5t9.5 -46.5q0 -20 -6 -38t-17 -33l283 -677h-164l-64 152h-301l-63 -152h-165l282 676q-23 31 -23 72q0 25 9 46.5t25 37.5t38 25.5t47 9.5zM494 290l-93 223l-93 -223h186zM400 709q16 0 27 11.5t11 27.5t-11 27t-27 11
q-17 0 -28 -11t-11 -27t11 -27.5t28 -11.5z" />
    <glyph glyph-name="Eacute" unicode="&#xc9;" horiz-adv-x="539" 
d="M48 709h443v-138h-291v-128h256v-138h-256v-168h291v-137h-443v709zM352 935l-63 -179h-102l14 179h151z" />
    <glyph glyph-name="Ntilde" unicode="&#xd1;" horiz-adv-x="730" 
d="M532 709h151v-709h-144l-341 463v-463h-151v709h142l343 -466v466zM438 854q13 0 27 5.5t27 13.5t22.5 16t13.5 14l45 -54q-2 -3 -13.5 -18t-29.5 -31.5t-41.5 -30t-50.5 -13.5q-28 0 -46 12t-33 26.5t-29.5 26.5t-34.5 12q-25 0 -48 -14t-38 -34q-20 15 -30.5 23
t-15.5 12q-6 4 -6 6q2 4 11.5 21t26.5 36t42 34t58 15q30 0 51.5 -12t37.5 -27t28.5 -27t25.5 -12z" />
    <glyph glyph-name="aacute" unicode="&#xe1;" horiz-adv-x="608" 
d="M564 496v-496h-119l-14 53q-29 -39 -69.5 -52t-84.5 -13q-53 0 -97.5 20.5t-77.5 56t-51.5 83t-18.5 101.5t18.5 101.5t51.5 83t77.5 56t97.5 20.5q48 0 88 -15t66 -48l14 49h119zM426 247q0 39 -10.5 65.5t-28 43t-41 24t-50.5 7.5t-50.5 -11t-41.5 -29.5t-28 -44
t-10 -53.5q0 -29 10 -54t28 -43.5t41.5 -29.5t50.5 -11q54 0 91.5 33.5t38.5 102.5zM393 710l-63 -179h-102l14 179h151z" />
    <glyph glyph-name="agrave" unicode="&#xe0;" horiz-adv-x="608" 
d="M564 496v-496h-119l-14 53q-29 -39 -69.5 -52t-84.5 -13q-53 0 -97.5 20.5t-77.5 56t-51.5 83t-18.5 101.5t18.5 101.5t51.5 83t77.5 56t97.5 20.5q48 0 88 -15t66 -48l14 49h119zM426 247q0 39 -10.5 65.5t-28 43t-41 24t-50.5 7.5t-50.5 -11t-41.5 -29.5t-28 -44
t-10 -53.5q0 -29 10 -54t28 -43.5t41.5 -29.5t50.5 -11q54 0 91.5 33.5t38.5 102.5zM331 710l14 -179h-102l-63 179h151z" />
    <glyph glyph-name="acircumflex" unicode="&#xe2;" horiz-adv-x="608" 
d="M564 496v-496h-119l-14 53q-29 -39 -69.5 -52t-84.5 -13q-53 0 -97.5 20.5t-77.5 56t-51.5 83t-18.5 101.5t18.5 101.5t51.5 83t77.5 56t97.5 20.5q48 0 88 -15t66 -48l14 49h119zM426 247q0 39 -10.5 65.5t-28 43t-41 24t-50.5 7.5t-50.5 -11t-41.5 -29.5t-28 -44
t-10 -53.5q0 -29 10 -54t28 -43.5t41.5 -29.5t50.5 -11q54 0 91.5 33.5t38.5 102.5zM250 575h-121l121 135h131l116 -135h-122l-60 88z" />
    <glyph glyph-name="atilde" unicode="&#xe3;" horiz-adv-x="608" 
d="M564 496v-496h-119l-14 53q-29 -39 -69.5 -52t-84.5 -13q-53 0 -97.5 20.5t-77.5 56t-51.5 83t-18.5 101.5t18.5 101.5t51.5 83t77.5 56t97.5 20.5q48 0 88 -15t66 -48l14 49h119zM426 247q0 39 -10.5 65.5t-28 43t-41 24t-50.5 7.5t-50.5 -11t-41.5 -29.5t-28 -44
t-10 -53.5q0 -29 10 -54t28 -43.5t41.5 -29.5t50.5 -11q54 0 91.5 33.5t38.5 102.5zM384 659q13 0 27 5.5t27 13.5t22.5 16t13.5 14l45 -54q-2 -3 -13.5 -18t-29.5 -31.5t-41.5 -30t-50.5 -13.5q-28 0 -46 12t-33 26.5t-29.5 26.5t-34.5 12q-25 0 -48 -14t-38 -34
q-20 15 -30.5 23t-15.5 12q-6 4 -6 6q2 4 11.5 21t26.5 36t42 34t58 15q30 0 51.5 -12t37.5 -27t28.5 -27t25.5 -12z" />
    <glyph glyph-name="aring" unicode="&#xe5;" horiz-adv-x="608" 
d="M564 496v-496h-119l-14 53q-29 -39 -69.5 -52t-84.5 -13q-53 0 -97.5 20.5t-77.5 56t-51.5 83t-18.5 101.5t18.5 101.5t51.5 83t77.5 56t97.5 20.5q48 0 88 -15t66 -48l14 49h119zM426 247q0 39 -10.5 65.5t-28 43t-41 24t-50.5 7.5t-50.5 -11t-41.5 -29.5t-28 -44
t-10 -53.5q0 -29 10 -54t28 -43.5t41.5 -29.5t50.5 -11q54 0 91.5 33.5t38.5 102.5zM312 801q25 0 46.5 -9.5t37.5 -25.5t25.5 -37.5t9.5 -46.5t-9.5 -46.5t-25.5 -37.5t-37.5 -25.5t-46.5 -9.5t-47 9.5t-38 25.5t-25 37.5t-9 46.5t9 46.5t25 37.5t38 25.5t47 9.5zM312 643
q16 0 27 11.5t11 27.5t-11 27t-27 11q-17 0 -28 -11t-11 -27t11 -27.5t28 -11.5z" />
    <glyph glyph-name="eacute" unicode="&#xe9;" horiz-adv-x="595" 
d="M290 510q56 0 102 -22.5t79 -59t51 -84t18 -97.5q0 -30 -8 -64h-354q20 -34 57 -57.5t80 -23.5t75.5 7t61.5 18l46 -85q-37 -26 -84.5 -40t-101.5 -14q-59 0 -110 20.5t-89 55.5t-60 83t-22 102q0 53 20 100.5t55.5 83t82.5 56.5t101 21zM403 290q-12 43 -43 70t-70 27
q-40 0 -72.5 -27t-44.5 -70h230zM380 710l-63 -179h-102l14 179h151z" />
    <glyph glyph-name="egrave" unicode="&#xe8;" horiz-adv-x="595" 
d="M290 510q56 0 102 -22.5t79 -59t51 -84t18 -97.5q0 -30 -8 -64h-354q20 -34 57 -57.5t80 -23.5t75.5 7t61.5 18l46 -85q-37 -26 -84.5 -40t-101.5 -14q-59 0 -110 20.5t-89 55.5t-60 83t-22 102q0 53 20 100.5t55.5 83t82.5 56.5t101 21zM403 290q-12 43 -43 70t-70 27
q-40 0 -72.5 -27t-44.5 -70h230zM366 710l14 -179h-102l-63 179h151z" />
    <glyph glyph-name="ecircumflex" unicode="&#xea;" horiz-adv-x="595" 
d="M290 510q56 0 102 -22.5t79 -59t51 -84t18 -97.5q0 -30 -8 -64h-354q20 -34 57 -57.5t80 -23.5t75.5 7t61.5 18l46 -85q-37 -26 -84.5 -40t-101.5 -14q-59 0 -110 20.5t-89 55.5t-60 83t-22 102q0 53 20 100.5t55.5 83t82.5 56.5t101 21zM403 290q-12 43 -43 70t-70 27
q-40 0 -72.5 -27t-44.5 -70h230zM235 573h-121l121 135h131l116 -135h-122l-60 88z" />
    <glyph glyph-name="edieresis" unicode="&#xeb;" horiz-adv-x="595" 
d="M290 510q56 0 102 -22.5t79 -59t51 -84t18 -97.5q0 -30 -8 -64h-354q20 -34 57 -57.5t80 -23.5t75.5 7t61.5 18l46 -85q-37 -26 -84.5 -40t-101.5 -14q-59 0 -110 20.5t-89 55.5t-60 83t-22 102q0 53 20 100.5t55.5 83t82.5 56.5t101 21zM403 290q-12 43 -43 70t-70 27
q-40 0 -72.5 -27t-44.5 -70h230zM419 709q32 0 54 -22t22 -54t-22 -54.5t-54 -22.5t-54.5 22.5t-22.5 54.5t22.5 54t54.5 22zM177 709q32 0 54 -22t22 -54t-22 -54.5t-54 -22.5t-54.5 22.5t-22.5 54.5t22.5 54t54.5 22z" />
    <glyph glyph-name="iacute" unicode="&#xed;" horiz-adv-x="262" 
d="M200 0h-138v496h138v-496zM246 710l-63 -179h-102l14 179h151z" />
    <glyph glyph-name="igrave" unicode="&#xec;" horiz-adv-x="262" 
d="M200 0h-138v496h138v-496zM168 710l14 -179h-102l-63 179h151z" />
    <glyph glyph-name="icircumflex" unicode="&#xee;" horiz-adv-x="262" 
d="M200 0h-138v496h138v-496zM68 573h-121l121 135h131l116 -135h-122l-60 88z" />
    <glyph glyph-name="idieresis" unicode="&#xef;" horiz-adv-x="262" 
d="M200 0h-138v496h138v-496zM253 708q32 0 54 -22t22 -54t-22 -54.5t-54 -22.5t-54.5 22.5t-22.5 54.5t22.5 54t54.5 22zM11 708q32 0 54 -22t22 -54t-22 -54.5t-54 -22.5t-54.5 22.5t-22.5 54.5t22.5 54t54.5 22z" />
    <glyph glyph-name="ntilde" unicode="&#xf1;" horiz-adv-x="541" 
d="M303 496q28 0 62 -8t64 -30t50.5 -61t20.5 -101v-296h-139v291q0 23 -7.5 39t-20 25.5t-28.5 14t-32 4.5q-13 0 -28.5 -4.5t-29 -14.5t-22.5 -26t-9 -38v-291h-138v496h118l20 -38q24 17 54 27.5t65 10.5zM344 659q13 0 27 5.5t27 13.5t22.5 16t13.5 14l45 -54
q-2 -3 -13.5 -18t-29.5 -31.5t-41.5 -30t-50.5 -13.5q-28 0 -46 12t-33 26.5t-29.5 26.5t-34.5 12q-25 0 -48 -14t-38 -34q-20 15 -30.5 23t-15.5 12q-6 4 -6 6q2 4 11.5 21t26.5 36t42 34t58 15q30 0 51.5 -12t37.5 -27t28.5 -27t25.5 -12z" />
    <glyph glyph-name="oacute" unicode="&#xf3;" horiz-adv-x="579" 
d="M290 510q53 0 100 -20.5t82 -56t55.5 -83t20.5 -101.5t-20.5 -101.5t-55.5 -83t-82 -56t-100 -20.5q-54 0 -101 20.5t-82 56t-55.5 83t-20.5 101.5t20.5 101.5t55.5 83t82 56t101 20.5zM290 109q25 0 46.5 10t38 27.5t26 42t9.5 54.5t-9.5 56t-26 45.5t-38 31t-46.5 11.5
t-47 -11.5t-38.5 -31t-26 -45.5t-9.5 -56t9.5 -54.5t26 -42t38.5 -27.5t47 -10zM372 710l-63 -179h-102l14 179h151z" />
    <glyph glyph-name="ograve" unicode="&#xf2;" horiz-adv-x="579" 
d="M290 510q53 0 100 -20.5t82 -56t55.5 -83t20.5 -101.5t-20.5 -101.5t-55.5 -83t-82 -56t-100 -20.5q-54 0 -101 20.5t-82 56t-55.5 83t-20.5 101.5t20.5 101.5t55.5 83t82 56t101 20.5zM290 109q25 0 46.5 10t38 27.5t26 42t9.5 54.5t-9.5 56t-26 45.5t-38 31t-46.5 11.5
t-47 -11.5t-38.5 -31t-26 -45.5t-9.5 -56t9.5 -54.5t26 -42t38.5 -27.5t47 -10zM358 710l14 -179h-102l-63 179h151z" />
    <glyph glyph-name="ocircumflex" unicode="&#xf4;" horiz-adv-x="579" 
d="M290 510q53 0 100 -20.5t82 -56t55.5 -83t20.5 -101.5t-20.5 -101.5t-55.5 -83t-82 -56t-100 -20.5q-54 0 -101 20.5t-82 56t-55.5 83t-20.5 101.5t20.5 101.5t55.5 83t82 56t101 20.5zM290 109q25 0 46.5 10t38 27.5t26 42t9.5 54.5t-9.5 56t-26 45.5t-38 31t-46.5 11.5
t-47 -11.5t-38.5 -31t-26 -45.5t-9.5 -56t9.5 -54.5t26 -42t38.5 -27.5t47 -10zM227 574h-121l121 135h131l116 -135h-122l-60 88z" />
    <glyph glyph-name="otilde" unicode="&#xf5;" horiz-adv-x="579" 
d="M290 510q53 0 100 -20.5t82 -56t55.5 -83t20.5 -101.5t-20.5 -101.5t-55.5 -83t-82 -56t-100 -20.5q-54 0 -101 20.5t-82 56t-55.5 83t-20.5 101.5t20.5 101.5t55.5 83t82 56t101 20.5zM290 109q25 0 46.5 10t38 27.5t26 42t9.5 54.5t-9.5 56t-26 45.5t-38 31t-46.5 11.5
t-47 -11.5t-38.5 -31t-26 -45.5t-9.5 -56t9.5 -54.5t26 -42t38.5 -27.5t47 -10zM363 659q13 0 27 5.5t27 13.5t22.5 16t13.5 14l45 -54q-2 -3 -13.5 -18t-29.5 -31.5t-41.5 -30t-50.5 -13.5q-28 0 -46 12t-33 26.5t-29.5 26.5t-34.5 12q-25 0 -48 -14t-38 -34
q-20 15 -30.5 23t-15.5 12q-6 4 -6 6q2 4 11.5 21t26.5 36t42 34t58 15q30 0 51.5 -12t37.5 -27t28.5 -27t25.5 -12z" />
    <glyph glyph-name="uacute" unicode="&#xfa;" horiz-adv-x="543" 
d="M359 496h138v-496h-118l-20 38q-24 -17 -54.5 -27.5t-65.5 -10.5q-27 0 -61.5 8t-64.5 30t-50.5 61t-20.5 101v296h139v-291q0 -23 7.5 -39t20 -25.5t28.5 -14t33 -4.5q13 0 28.5 4.5t29 14.5t22.5 26t9 38v291zM354 710l-63 -179h-102l14 179h151z" />
    <glyph glyph-name="ugrave" unicode="&#xf9;" horiz-adv-x="543" 
d="M359 496h138v-496h-118l-20 38q-24 -17 -54.5 -27.5t-65.5 -10.5q-27 0 -61.5 8t-64.5 30t-50.5 61t-20.5 101v296h139v-291q0 -23 7.5 -39t20 -25.5t28.5 -14t33 -4.5q13 0 28.5 4.5t29 14.5t22.5 26t9 38v291zM340 710l14 -179h-102l-63 179h151z" />
    <glyph glyph-name="ucircumflex" unicode="&#xfb;" horiz-adv-x="543" 
d="M359 496h138v-496h-118l-20 38q-24 -17 -54.5 -27.5t-65.5 -10.5q-27 0 -61.5 8t-64.5 30t-50.5 61t-20.5 101v296h139v-291q0 -23 7.5 -39t20 -25.5t28.5 -14t33 -4.5q13 0 28.5 4.5t29 14.5t22.5 26t9 38v291zM209 573h-121l121 135h131l116 -135h-122l-60 88z" />
    <glyph glyph-name="Agrave" unicode="&#xc0;" horiz-adv-x="801" 
d="M483 709l296 -709h-164l-64 152h-301l-63 -152h-165l296 709h165zM494 290l-93 223l-93 -223h186zM441 935l14 -179h-102l-63 179h151z" />
    <glyph glyph-name="Atilde" unicode="&#xc3;" horiz-adv-x="801" 
d="M483 709l296 -709h-164l-64 152h-301l-63 -152h-165l296 709h165zM494 290l-93 223l-93 -223h186zM474 854q13 0 27 5.5t27 13.5t22.5 16t13.5 14l45 -54q-2 -3 -13.5 -18t-29.5 -31.5t-41.5 -30t-50.5 -13.5q-28 0 -46 12t-33 26.5t-29.5 26.5t-34.5 12q-25 0 -48 -14
t-38 -34q-20 15 -30.5 23t-15.5 12q-6 4 -6 6q2 4 11.5 21t26.5 36t42 34t58 15q30 0 51.5 -12t37.5 -27t28.5 -27t25.5 -12z" />
    <glyph glyph-name="Otilde" unicode="&#xd5;" horiz-adv-x="765" 
d="M382 719q72 0 136 -29t111.5 -79t75 -116t27.5 -141q0 -74 -27.5 -141t-75 -117t-111.5 -79.5t-136 -29.5t-136 29.5t-111 79.5t-74.5 117t-27.5 141q0 75 27.5 141t74.5 116t111 79t136 29zM382 138q41 0 77 17t63 46.5t42.5 68.5t15.5 84t-15.5 84.5t-42.5 69t-63 46.5
t-77 17t-77 -17t-63 -46.5t-42.5 -69t-15.5 -84.5t15.5 -84t42.5 -68.5t63 -46.5t77 -17zM456 854q13 0 27 5.5t27 13.5t22.5 16t13.5 14l45 -54q-2 -3 -13.5 -18t-29.5 -31.5t-41.5 -30t-50.5 -13.5q-28 0 -46 12t-33 26.5t-29.5 26.5t-34.5 12q-25 0 -48 -14t-38 -34
q-20 15 -30.5 23t-15.5 12q-6 4 -6 6q2 4 11.5 21t26.5 36t42 34t58 15q30 0 51.5 -12t37.5 -27t28.5 -27t25.5 -12z" />
    <glyph glyph-name="Acircumflex" unicode="&#xc2;" horiz-adv-x="801" 
d="M483 709l296 -709h-164l-64 152h-301l-63 -152h-165l296 709h165zM494 290l-93 223l-93 -223h186zM338 756h-121l121 135h131l116 -135h-122l-60 88z" />
    <glyph glyph-name="Ecircumflex" unicode="&#xca;" horiz-adv-x="539" 
d="M48 709h443v-138h-291v-128h256v-138h-256v-168h291v-137h-443v709zM207 756h-121l121 135h131l116 -135h-122l-60 88z" />
    <glyph glyph-name="Aacute" unicode="&#xc1;" horiz-adv-x="801" 
d="M483 709l296 -709h-164l-64 152h-301l-63 -152h-165l296 709h165zM494 290l-93 223l-93 -223h186zM517 935l-63 -179h-102l14 179h151z" />
    <glyph glyph-name="Edieresis" unicode="&#xcb;" horiz-adv-x="539" 
d="M48 709h443v-138h-291v-128h256v-138h-256v-168h291v-137h-443v709zM391 909q32 0 54 -22t22 -54t-22 -54.5t-54 -22.5t-54.5 22.5t-22.5 54.5t22.5 54t54.5 22zM149 909q32 0 54 -22t22 -54t-22 -54.5t-54 -22.5t-54.5 22.5t-22.5 54.5t22.5 54t54.5 22z" />
    <glyph glyph-name="Egrave" unicode="&#xc8;" horiz-adv-x="539" 
d="M48 709h443v-138h-291v-128h256v-138h-256v-168h291v-137h-443v709zM338 935l14 -179h-102l-63 179h151z" />
    <glyph glyph-name="Iacute" unicode="&#xcd;" horiz-adv-x="351" 
d="M305 709v-128h-53v-454h53v-127h-258v127h53v454h-53v128h258zM295 935l-63 -179h-102l14 179h151z" />
    <glyph glyph-name="Icircumflex" unicode="&#xce;" horiz-adv-x="351" 
d="M305 709v-128h-53v-454h53v-127h-258v127h53v454h-53v128h258zM113 756h-121l121 135h131l116 -135h-122l-60 88z" />
    <glyph glyph-name="Idieresis" unicode="&#xcf;" horiz-adv-x="351" 
d="M305 709v-128h-53v-454h53v-127h-258v127h53v454h-53v128h258zM300 909q32 0 54 -22t22 -54t-22 -54.5t-54 -22.5t-54.5 22.5t-22.5 54.5t22.5 54t54.5 22zM58 909q32 0 54 -22t22 -54t-22 -54.5t-54 -22.5t-54.5 22.5t-22.5 54.5t22.5 54t54.5 22z" />
    <glyph glyph-name="Igrave" unicode="&#xcc;" horiz-adv-x="351" 
d="M305 709v-128h-53v-454h53v-127h-258v127h53v454h-53v128h258zM215 935l14 -179h-102l-63 179h151z" />
    <glyph glyph-name="Oacute" unicode="&#xd3;" horiz-adv-x="765" 
d="M382 719q72 0 136 -29t111.5 -79t75 -116t27.5 -141q0 -74 -27.5 -141t-75 -117t-111.5 -79.5t-136 -29.5t-136 29.5t-111 79.5t-74.5 117t-27.5 141q0 75 27.5 141t74.5 116t111 79t136 29zM382 138q41 0 77 17t63 46.5t42.5 68.5t15.5 84t-15.5 84.5t-42.5 69t-63 46.5
t-77 17t-77 -17t-63 -46.5t-42.5 -69t-15.5 -84.5t15.5 -84t42.5 -68.5t63 -46.5t77 -17zM465 935l-63 -179h-102l14 179h151z" />
    <glyph glyph-name="Ocircumflex" unicode="&#xd4;" horiz-adv-x="765" 
d="M382 719q72 0 136 -29t111.5 -79t75 -116t27.5 -141q0 -74 -27.5 -141t-75 -117t-111.5 -79.5t-136 -29.5t-136 29.5t-111 79.5t-74.5 117t-27.5 141q0 75 27.5 141t74.5 116t111 79t136 29zM382 138q41 0 77 17t63 46.5t42.5 68.5t15.5 84t-15.5 84.5t-42.5 69t-63 46.5
t-77 17t-77 -17t-63 -46.5t-42.5 -69t-15.5 -84.5t15.5 -84t42.5 -68.5t63 -46.5t77 -17zM320 756h-121l121 135h131l116 -135h-122l-60 88z" />
    <glyph glyph-name="Ydieresis" unicode="&#x178;" horiz-adv-x="693" 
d="M492 709h183l-253 -377v-332h-151v332l-253 377h183l146 -218zM469 909q32 0 54 -22t22 -54t-22 -54.5t-54 -22.5t-54.5 22.5t-22.5 54.5t22.5 54t54.5 22zM227 909q32 0 54 -22t22 -54t-22 -54.5t-54 -22.5t-54.5 22.5t-22.5 54.5t22.5 54t54.5 22z" />
    <glyph glyph-name="ydieresis" unicode="&#xff;" horiz-adv-x="591" 
d="M428 496h151l-313 -694h-151l123 273l-210 421h154l129 -259zM426 709q32 0 54 -22t22 -54t-22 -54.5t-54 -22.5t-54.5 22.5t-22.5 54.5t22.5 54t54.5 22zM184 709q32 0 54 -22t22 -54t-22 -54.5t-54 -22.5t-54.5 22.5t-22.5 54.5t22.5 54t54.5 22z" />
    <glyph glyph-name="Ugrave" unicode="&#xd9;" horiz-adv-x="640" 
d="M448 709h151v-453q0 -53 -22 -102t-60 -86t-88.5 -59t-108.5 -22q-57 0 -108 22t-88.5 59t-59.5 86t-22 102v453h151v-423q0 -30 10 -56.5t27 -47t40.5 -32.5t49.5 -12q27 0 50 12t40.5 32.5t27.5 47t10 56.5v423zM388 935l14 -179h-102l-63 179h151z" />
    <glyph glyph-name="Ucircumflex" unicode="&#xdb;" horiz-adv-x="640" 
d="M448 709h151v-453q0 -53 -22 -102t-60 -86t-88.5 -59t-108.5 -22q-57 0 -108 22t-88.5 59t-59.5 86t-22 102v453h151v-423q0 -30 10 -56.5t27 -47t40.5 -32.5t49.5 -12q27 0 50 12t40.5 32.5t27.5 47t10 56.5v423zM257 756h-121l121 135h131l116 -135h-122l-60 88z" />
    <glyph glyph-name="Uacute" unicode="&#xda;" horiz-adv-x="640" 
d="M448 709h151v-453q0 -53 -22 -102t-60 -86t-88.5 -59t-108.5 -22q-57 0 -108 22t-88.5 59t-59.5 86t-22 102v453h151v-423q0 -30 10 -56.5t27 -47t40.5 -32.5t49.5 -12q27 0 50 12t40.5 32.5t27.5 47t10 56.5v423zM402 935l-63 -179h-102l14 179h151z" />
    <glyph glyph-name="Ograve" unicode="&#xd2;" horiz-adv-x="765" 
d="M382 719q72 0 136 -29t111.5 -79t75 -116t27.5 -141q0 -74 -27.5 -141t-75 -117t-111.5 -79.5t-136 -29.5t-136 29.5t-111 79.5t-74.5 117t-27.5 141q0 75 27.5 141t74.5 116t111 79t136 29zM382 138q41 0 77 17t63 46.5t42.5 68.5t15.5 84t-15.5 84.5t-42.5 69t-63 46.5
t-77 17t-77 -17t-63 -46.5t-42.5 -69t-15.5 -84.5t15.5 -84t42.5 -68.5t63 -46.5t77 -17zM451 935l14 -179h-102l-63 179h151z" />
    <glyph glyph-name="c_t" horiz-adv-x="915" 
d="M749 183q0 -35 21.5 -54t56.5 -19q28 0 56 11v-116q-25 -8 -53 -13.5t-56 -5.5q-32 0 -61 8t-52 27.5t-36.5 52t-13.5 80.5v219h-71v93l71 30v46q0 49 -18.5 71.5t-52.5 22.5q-21 0 -37 -8t-26.5 -21.5t-16 -31t-5.5 -36.5q0 -33 9.5 -67.5t17.5 -58.5l-96 -74
q-29 27 -52.5 37.5t-52.5 10.5q-25 0 -47 -11.5t-38.5 -31t-26 -45.5t-9.5 -56t9.5 -54.5t26 -42t38.5 -27.5t47 -10q31 0 60.5 14.5t50.5 40.5l85 -84q-35 -42 -86 -67t-110 -25q-54 0 -101 20.5t-82 56t-55.5 83t-20.5 101.5t20.5 101.5t55.5 83t82 56t101 20.5
q20 0 40 -3q-1 7 -1.5 14t-0.5 14q0 38 11 77.5t36.5 71.5t68 52.5t105.5 20.5q54 0 93.5 -16t65 -45t38 -68.5t12.5 -85.5v-46h134v-123h-134v-190v0z" />
    <glyph glyph-name="s_t" unicode="&#xfb06;" horiz-adv-x="809" 
d="M645 183q0 -35 21.5 -54t56.5 -19q28 0 56 11v-116q-25 -8 -53 -13.5t-56 -5.5q-32 0 -61 8t-52 27.5t-36.5 52t-13.5 80.5v219h-71v93l71 30v41q0 37 -18.5 64.5t-52.5 27.5q-42 0 -64 -28t-22 -66q0 -18 3.5 -37.5t8 -37.5t10 -34t9.5 -28l4 -11l-107 -36
q-6 18 -24.5 29t-39.5 11t-34 -14t-13 -28q0 -11 5.5 -18.5t13.5 -13t18 -8t18 -2.5q102 -18 144.5 -56.5t42.5 -101.5q0 -33 -15.5 -62t-42.5 -51t-63 -34.5t-77 -12.5q-31 0 -60.5 8t-54.5 22t-43.5 33.5t-27.5 43.5q23 11 51 24.5t49 24.5q9 -15 28 -27.5t52 -12.5
q34 0 50 16t16 30q0 9 -8.5 15.5t-20 12t-23 8.5t-18.5 4q-62 11 -96 31.5t-50.5 43t-19.5 43.5t-3 35q0 33 13.5 62.5t37.5 52t57 36t71 13.5h5q-1 5 -1 10.5v11.5q0 38 11 79t36.5 75t68 56t105.5 22q54 0 93.5 -17.5t65 -48.5t38 -72t12.5 -87v-41h134v-123h-134v-190v0z
" />
    <glyph glyph-name="ccedilla_t" horiz-adv-x="903" 
d="M752 183q0 -35 21.5 -54t56.5 -19q28 0 56 11v-116q-25 -8 -53 -13.5t-56 -5.5q-32 0 -61 8t-52 27.5t-36.5 52t-13.5 80.5v219h-71v93l71 30v46q0 48 -20 70t-54 22q-44 0 -64.5 -28.5t-20.5 -66.5q0 -33 10 -68.5t15 -58.5l-94 -73q-29 27 -52.5 37.5t-52.5 10.5
q-25 0 -47 -11.5t-38.5 -31t-26 -45.5t-9.5 -56t9.5 -54.5t26 -42t38.5 -27.5t47 -10q31 0 60.5 14.5t50.5 40.5l85 -84q-34 -41 -82 -65.5t-104 -26.5l-32 -32q24 0 42 -8t31 -20.5t19.5 -29t6.5 -33.5q0 -21 -9.5 -38t-26 -28.5t-37.5 -17.5t-45 -6q-31 0 -49 5
q-11 2 -18 5l8 50q7 0 13 -0.5t14 -0.5q22 0 38 8t16 25q0 31 -38 31q-8 0 -17 -2t-17 -7l-30 28l56 80q-42 10 -77.5 34t-61.5 57t-40.5 74t-14.5 87q0 54 20.5 101.5t55.5 83t82 56t101 20.5q20 0 40 -3q-3 24 -3 48q0 34 12.5 69.5t38.5 65t67.5 48.5t100.5 19
q54 0 94.5 -16t67 -45t40 -68.5t13.5 -85.5v-46h134v-123h-134v-190v0z" />
    <glyph glyph-name="scedilla_t" horiz-adv-x="793" 
d="M644 184q0 -35 21.5 -54t56.5 -19q28 0 56 11v-116q-25 -8 -53 -13.5t-56 -5.5q-32 0 -61 8t-52 27.5t-36.5 52t-13.5 80.5v218h-71v93l71 30v41q0 48 -18.5 70t-52.5 22q-47 0 -66.5 -28t-19.5 -66q0 -18 3.5 -37.5t8 -37.5t10 -34t9.5 -28l4 -11l-107 -36
q-6 18 -24.5 29t-39.5 11t-34 -14t-13 -28q0 -12 5.5 -19.5t13.5 -12t18 -7t18 -3.5q102 -19 144.5 -56.5t42.5 -101.5q0 -29 -12 -55.5t-33.5 -47.5t-51 -35t-64.5 -19l-35 -36q24 0 42 -8t31 -20.5t19.5 -29t6.5 -33.5q0 -21 -9.5 -38t-26 -28.5t-37.5 -17.5t-45 -6
q-31 0 -49 5q-11 2 -18 5l8 50q7 0 13 -0.5t14 -0.5q22 0 38 8t16 25q0 31 -38 31q-8 0 -17 -2t-17 -7l-30 28l53 76q-49 9 -88 37t-54 66q23 11 51 24.5t49 24.5q9 -15 28 -27.5t52 -12.5q34 0 50 15.5t16 30.5q0 10 -8.5 17t-20 12t-23.5 7.5t-18 3.5q-64 12 -99 33.5
t-51 45t-18.5 45t-2.5 34.5q0 32 14.5 61t39 50.5t57.5 34.5t70 13h5q-1 5 -1 10.5v11.5q0 38 11.5 77.5t37.5 71.5t67.5 52.5t101.5 20.5q54 0 94 -16t66 -45t39 -68.5t13 -85.5v-41h134v-123h-134v-189v0z" />
    <glyph glyph-name="c_h" horiz-adv-x="1128" 
d="M870 510q49 0 91.5 -20.5t73.5 -56t48.5 -83t17.5 -101.5v-249h-135v91q0 38 0.5 78.5t0.5 69.5q0 28 -9 55t-25 47.5t-37.5 33t-45.5 12.5q-23 0 -44 -8.5t-37 -25t-25.5 -41.5t-9.5 -59v-253h-139v542q-3 48 -18 71t-49 23q-20 0 -33 -8t-21 -21.5t-11.5 -31
t-3.5 -36.5q0 -33 9.5 -67.5t17.5 -58.5l-96 -74q-29 27 -52.5 35.5t-52.5 8.5q-25 0 -47 -10.5t-38.5 -29.5t-26 -44.5t-9.5 -55.5t9.5 -54t26 -41.5t38.5 -27t47 -9.5q31 0 65.5 18.5t55.5 44.5l85 -84q-18 -21 -41 -39.5t-50 -32.5t-56.5 -22t-58.5 -8q-54 0 -101 20.5
t-82 56t-55.5 83t-20.5 101.5t20.5 101.5t55.5 83t82 56t101 20.5q20 0 40 -3q-1 7 -1.5 14t-0.5 14q0 38 7.5 79.5t30 76t62.5 56.5t105 22q50 0 84 -17.5t59 -39.5l63 18v-272q26 25 59.5 38.5t76.5 13.5z" />
    <glyph glyph-name="ccedilla_h" horiz-adv-x="1113" 
d="M262 -44q24 0 42 -8t31 -20.5t19.5 -29t6.5 -33.5q0 -21 -9.5 -38t-26 -28.5t-37.5 -17.5t-45 -6q-31 0 -49 5q-11 2 -18 5l8 50q7 0 13 -0.5t14 -0.5q22 0 38 8t16 25q0 31 -38 31q-8 0 -17 -2t-17 -7l-30 28l56 80q-42 10 -77.5 34t-61.5 57t-40.5 74t-14.5 87
q0 54 20.5 101.5t55.5 83t82 56t101 20.5q20 0 40 -3q-1 7 -1.5 14t-0.5 14q0 38 6.5 79.5t28.5 76t62 56.5t108 22q50 0 84 -17.5t59 -39.5l63 18v-272q26 25 59.5 38.5t76.5 13.5q49 0 91.5 -20.5t73.5 -56t48.5 -83t17.5 -101.5v-249h-135v91q0 38 0.5 78.5t0.5 69.5
q0 28 -9 55t-25 47.5t-37.5 33t-45.5 12.5q-23 0 -44 -8.5t-37 -25t-25.5 -41.5t-9.5 -59v-253h-139v542q-3 48 -18 71t-49 23q-20 0 -33 -8t-21 -21.5t-11.5 -31t-3.5 -36.5q0 -33 9.5 -67.5t17.5 -58.5l-96 -74q-29 27 -52.5 37.5t-52.5 10.5q-25 0 -47 -11.5t-38.5 -31
t-26 -45.5t-9.5 -56t9.5 -54.5t26 -42t38.5 -27.5t47 -10q31 0 65.5 19.5t55.5 45.5l85 -84q-17 -20 -39.5 -38t-48 -32t-53 -22.5t-55.5 -9.5l-32 -32v0z" />
    <glyph glyph-name="c_k" horiz-adv-x="1099" 
d="M869 290l209 -290h-165l-131 198l-49 -53v-145h-138v542q-3 48 -18 71t-49 23q-20 0 -33 -8t-21 -21.5t-11.5 -31t-3.5 -36.5q0 -33 9.5 -67.5t17.5 -58.5l-96 -74q-29 27 -52.5 35.5t-52.5 8.5q-25 0 -47 -10.5t-38.5 -29.5t-26 -44.5t-9.5 -55.5t9.5 -54.5t26 -42
t38.5 -27.5t47 -10q31 0 65.5 19.5t55.5 45.5l85 -84q-18 -21 -41 -39.5t-50 -32.5t-56.5 -22t-58.5 -8q-54 0 -101 20.5t-82 56t-55.5 83t-20.5 101.5t20.5 101.5t55.5 83t82 56t101 20.5q20 0 40 -3q-1 7 -1.5 14t-0.5 14q0 38 9 79.5t32 76t62.5 56.5t101.5 22
q49 0 83.5 -17.5t59.5 -39.5l62 18v-405l161 171h168z" />
    <glyph glyph-name="ccedilla_k" horiz-adv-x="1087" 
d="M262 -44q24 0 42 -8t31 -20.5t19.5 -29t6.5 -33.5q0 -21 -9.5 -38t-26 -28.5t-37.5 -17.5t-45 -6q-31 0 -49 5q-11 2 -18 5l8 50q7 0 13 -0.5t14 -0.5q22 0 38 8t16 25q0 31 -38 31q-8 0 -17 -2t-17 -7l-30 28l56 80q-42 10 -77.5 34t-61.5 57t-40.5 74t-14.5 87
q0 54 20.5 101.5t55.5 83t82 56t101 20.5q20 0 40 -3q-1 7 -1.5 14t-0.5 14q0 38 10 79.5t33.5 76t63 56.5t98.5 22q48 0 83 -17.5t60 -39.5l62 18v-405l161 171h168l-193 -206l209 -290h-165l-131 198l-49 -53v-145h-138v542q-3 48 -18 71t-49 23q-20 0 -33 -8t-21 -21.5
t-11.5 -31t-3.5 -36.5q0 -33 9.5 -67.5t17.5 -58.5l-96 -74q-29 27 -52.5 37.5t-52.5 10.5q-25 0 -47 -11.5t-38.5 -31t-26 -45.5t-9.5 -56t9.5 -54.5t26 -42t38.5 -27.5t47 -10q31 0 65.5 19.5t55.5 45.5l85 -84q-17 -20 -39.5 -38t-48 -32t-53 -22.5t-55.5 -9.5l-32 -32v0
z" />
    <glyph glyph-name="ae" unicode="&#xe6;" horiz-adv-x="897" 
d="M612 514q56 0 102 -22.5t79 -59t51 -84t18 -97.5q0 -30 -8 -64h-354q20 -34 57 -57.5t80 -23.5t75.5 7t61.5 18l46 -85q-37 -26 -84.5 -40t-101.5 -14q-62 0 -115 22.5t-91 60.5q-26 -27 -47.5 -43t-43 -24t-46 -11t-54.5 -4q-39 -1 -72 5t-58.5 20.5t-41.5 39t-20 60.5
t7.5 66.5t34 53t54 37t68.5 18.5l48 5q34 3 53.5 7t29.5 9.5t12.5 12t2.5 14.5q0 27 -22.5 42.5t-67.5 15.5q-35 0 -60 -14.5t-54 -45.5l-92 56q49 66 103.5 92.5t117.5 26.5q17 0 38.5 -3t43.5 -10.5t43 -19t39 -29.5q34 29 77 45.5t91 16.5zM725 294q-12 43 -43 70t-70 27
q-40 0 -72.5 -27t-44.5 -70h230zM356 213q-20 -2 -40 -5q-17 -2 -36.5 -4t-36.5 -4q-37 -5 -50.5 -23.5t-11.5 -33.5q3 -20 21 -32.5t51 -10.5q13 1 30.5 5.5t33.5 15t27.5 26.5t11.5 40v26z" />
    <glyph glyph-name="dagger" unicode="&#x2020;" horiz-adv-x="388" 
d="M381 416h-141v-576h-94v576h-139v94h139v246h94v-246h141v-94z" />
    <glyph glyph-name="daggerdbl" unicode="&#x2021;" horiz-adv-x="443" 
d="M9 496h165v260h94v-260h167v-95h-167v-197h167v-95h-167v-300h-94v300h-165v95h165v197h-165v95z" />
    <glyph glyph-name="oe" unicode="&#x153;" horiz-adv-x="960" 
d="M674 510q56 0 102 -22.5t79 -59t51 -84t18 -97.5q0 -30 -8 -64h-354q20 -34 57 -57.5t80 -23.5t75.5 7t61.5 18l46 -85q-37 -26 -84.5 -40t-101.5 -14q-63 0 -117 23t-93 63q-35 -40 -84.5 -63t-106.5 -23q-54 0 -101 20.5t-82 56t-55.5 83t-20.5 101.5t20.5 101.5
t55.5 83t82 56t101 20.5q56 0 105 -22.5t84 -61.5q35 39 84 61.5t106 22.5zM295 109q24 0 45.5 9.5t38 26.5t26 40.5t10.5 52.5v5q0 30 -9.5 56t-26 45.5t-38 31t-46.5 11.5t-47 -11.5t-38.5 -31t-26 -45.5t-9.5 -56t9.5 -54.5t26 -42t38.5 -27.5t47 -10zM787 290
q-12 43 -43 70t-70 27q-40 0 -72.5 -27t-44.5 -70h230z" />
    <glyph glyph-name="OE" unicode="&#x152;" horiz-adv-x="1005" 
d="M522 18q-67 -31 -139 -31t-136 29.5t-111 79.5t-74.5 117t-27.5 141q0 75 27.5 141t74.5 116t111 79t136 29t139 -31v21h443v-138h-291v-128h256v-138h-256v-168h291v-137h-443v18zM383 138q41 0 76.5 16.5t62.5 45.5v309q-27 29 -62.5 45.5t-76.5 16.5t-77 -17
t-63 -46.5t-42.5 -69t-15.5 -84.5t15.5 -84t42.5 -68.5t63 -46.5t77 -17z" />
    <glyph glyph-name="yen" unicode="&#xa5;" horiz-adv-x="693" 
d="M133 398h94l-209 311h183l146 -218l145 218h183l-209 -311h93v-65h-137v-1v-69h137v-65h-137v-198h-151v198h-138v65h138v69l-1 1h-137v65z" />
    <glyph glyph-name="section" unicode="&#xa7;" horiz-adv-x="573" 
d="M461 427q38 -23 59 -59.5t21 -84.5q0 -44 -20 -81.5t-58 -67.5q38 -23 58 -59t20 -82q0 -45 -21.5 -83.5t-60.5 -69.5q-74 -55 -177 -57q-50 0 -96 14t-81 42q-54 41 -73 98l131 60q0 -9 6.5 -23t20.5 -27t36.5 -22.5t54.5 -9.5q53 0 80.5 22.5t27.5 48.5q0 15 -10 28
t-30 21q-37 13 -79 22t-81.5 22.5t-72.5 35.5t-53 63q-18 36 -18 75q0 43 19 83t52 69q-16 12 -29.5 27.5t-23.5 35.5q-18 36 -18 76q0 45 21 86.5t57 70.5q35 27 78 42t91 15t91 -14.5t78 -41.5q33 -24 53 -58l-107 -73q-20 26 -49 43t-65 17q-51 0 -78.5 -22.5
t-27.5 -59.5q0 -17 15.5 -30t40 -23t55.5 -18t61.5 -16t57.5 -16.5t44 -18.5zM300 340h-7q-51 0 -78.5 -22.5t-27.5 -58.5q0 -14 10.5 -25.5t28.5 -20.5q11 -3 24.5 -5t30.5 -2q53 0 80.5 22.5t27.5 48.5q0 14 -10 27.5t-30 20.5z" />
    <glyph glyph-name="divide" unicode="&#xf7;" horiz-adv-x="522" 
d="M513 281v-94h-503v94h503zM256 144q32 0 54.5 -22t22.5 -54t-22.5 -54t-54.5 -22t-54 22t-22 54t22 54t54 22zM259 473q32 0 54 -22t22 -54t-22 -54.5t-54 -22.5t-54.5 22.5t-22.5 54.5t22.5 54t54.5 22z" />
    <glyph glyph-name="plusminus" unicode="&#xb1;" horiz-adv-x="533" 
d="M507 383v-94h-194v-155h-95v155h-194v94h194v155h95v-155h194zM509 94v-94h-483v94h483z" />
    <glyph glyph-name="lessequal" unicode="&#x2264;" horiz-adv-x="521" 
d="M453 85l-399 197v95l399 197v-95l-303 -150l303 -149v-95zM453 84v-84h-417v84h417z" />
    <glyph glyph-name="greaterequal" unicode="&#x2265;" horiz-adv-x="521" 
d="M68 180l303 149l-303 150v95l399 -197v-95l-399 -197v95zM485 84v-84h-417v84h417z" />
    <glyph glyph-name="ellipsis" unicode="&#x2026;" horiz-adv-x="693" 
d="M117 144q32 0 54.5 -22t22.5 -54t-22.5 -54t-54.5 -22t-54 22t-22 54t22 54t54 22zM346 144q32 0 54.5 -22t22.5 -54t-22.5 -54t-54.5 -22t-54 22t-22 54t22 54t54 22zM575 144q32 0 54.5 -22t22.5 -54t-22.5 -54t-54.5 -22t-54 22t-22 54t22 54t54 22z" />
    <glyph glyph-name="approxequal" unicode="&#x2248;" horiz-adv-x="594" 
d="M396 194q21 0 39.5 5t33.5 12.5t25 15.5t15 14l58 -52l-17.5 -17.5t-38 -30.5t-54 -28.5t-65.5 -12.5q-36 0 -59.5 11.5t-43 25t-38.5 25t-45 11.5q-24 0 -44 -7t-35 -15.5t-23.5 -15.5t-9.5 -8l-67 39q1 1 12 17.5t33 35t55.5 34t78.5 15.5q40 0 68.5 -11.5t50 -25.5
t38 -25.5t33.5 -11.5zM396 400q21 0 39.5 5t33.5 12.5t25 15.5t15 14l58 -52l-17.5 -17.5t-38 -30.5t-54 -28.5t-65.5 -12.5q-36 0 -59.5 11.5t-43 25t-38.5 25t-45 11.5q-24 0 -44 -7t-35 -15.5t-23.5 -15.5t-9.5 -8l-67 39q1 1 12 17.5t33 35t55.5 34t78.5 15.5
q40 0 68.5 -11.5t50 -25.5t38 -25.5t33.5 -11.5z" />
    <glyph glyph-name="quotesinglbase" unicode="&#x201a;" horiz-adv-x="238" 
d="M66 127h155l-82 -271h-106z" />
    <glyph glyph-name="quotedblbase" unicode="&#x201e;" horiz-adv-x="490" 
d="M72 127h155l-82 -271h-106zM304 127h155l-82 -271h-106z" />
    <glyph glyph-name="periodcentered" unicode="&#xb7;" horiz-adv-x="224" 
d="M204 496l-63 -179h-102l14 179h151z" />
    <glyph glyph-name="florin" unicode="&#x192;" horiz-adv-x="562" 
d="M91 -48q26 0 46 -15t27 -38q26 5 38 23t12 47v404h-65v73l65 50v72q0 52 15.5 89.5t41.5 62t60 36t72 11.5q22 0 47 -3.5t46.5 -13.5t36 -27t14.5 -44q0 -32 -22.5 -54t-54.5 -22q-26 0 -45 14t-27 37q-47 -11 -47 -69v-89h133v-123h-133v-387q0 -52 -15.5 -89.5
t-41.5 -62t-60 -36t-72 -11.5q-22 0 -48 4t-48 13.5t-36.5 27t-14.5 44.5q0 32 22 54t54 22z" />
    <glyph glyph-name="endash" unicode="&#x2013;" horiz-adv-x="726" 
d="M681 300v-94h-636v94h636z" />
    <glyph glyph-name="emdash" unicode="&#x2014;" horiz-adv-x="854" 
d="M809 300v-94h-764v94h764z" />
    <glyph glyph-name="guillemotright" unicode="&#xbb;" horiz-adv-x="493" 
d="M36 405v127l203 -184v-95l-207 -178v129q32 25 64.5 49t64.5 48zM238 450v128l238 -230v-93l-238 -219v129q26 21 53.5 44t54.5 46l54 46z" />
    <glyph glyph-name="guillemotleft" unicode="&#xab;" horiz-adv-x="493" 
d="M332 301q32 -24 64.5 -48t64.5 -49v-129l-207 178v95l203 184v-127zM93 301l54 -46q27 -23 54.5 -46t53.5 -44v-129l-238 219v93l238 230v-128z" />
    <glyph glyph-name="oslash" unicode="&#xf8;" horiz-adv-x="573" 
d="M508 510l-45 -72q38 -35 59.5 -84t21.5 -105q0 -54 -20.5 -101.5t-55.5 -83t-82 -56t-100 -20.5q-49 0 -94 17l-35 -55l-80 50l35 55q-40 36 -62.5 86t-22.5 108q0 54 20.5 101.5t55.5 83t82 56t101 20.5q53 0 99 -20l44 69zM165 243q0 -44 18 -74l134 213q-17 5 -31 5
q-25 0 -47 -11.5t-38.5 -31t-26 -45.5t-9.5 -56zM286 109q25 0 46.5 10t38 27.5t26 42t9.5 54.5q0 21 -5 39.5t-13 35.5l-129 -206q12 -3 27 -3z" />
    <glyph glyph-name="M.extra" horiz-adv-x="1378" 
d="M1190 709h143v-709h-151v468l-169 -237h-121l-204 255l-199 -255h-121l-171 230v-461h-152v709h144l240 -317l194 259h134l199 -259z" />
    <glyph glyph-name="E.extra" horiz-adv-x="524" 
d="M45 837h444v-138h-291v-138h256v-138h-256v-148h256v-137h-256v-138h291v-138h-444v975z" />
    <glyph glyph-name="O.extra" horiz-adv-x="1029" 
d="M645 719q72 0 136 -29t111.5 -79t75 -116t27.5 -141q0 -74 -27.5 -141t-75 -117t-111.5 -79.5t-136 -29.5q-35 0 -68 7t-63 20q-31 -13 -63.5 -20t-67.5 -7q-72 0 -136 29.5t-111 79.5t-74.5 117t-27.5 141q0 75 27.5 141t74.5 116t111 79t136 29q35 0 67.5 -7t63.5 -20
q30 13 63 20t68 7zM185 354q0 -42 14 -79.5t38 -66.5t56.5 -47t70.5 -22q-32 46 -50 100.5t-18 114.5t18 115t50 101q-38 -4 -70.5 -22.5t-56.5 -47.5t-38 -66.5t-14 -79.5zM733 354q0 -60 -18 -114.5t-50 -100.5q37 4 69.5 22.5t56.5 47t38 66t14 79.5t-14 79.5t-38 66.5
t-56.5 47.5t-70.5 22.5q32 -46 50.5 -101t18.5 -115zM581 354q0 49 -18 91t-49 72q-31 -30 -49 -72t-18 -91t18 -91t49 -71q31 29 49 71t18 91z" />
    <glyph glyph-name="T.extra" horiz-adv-x="839" 
d="M29 709h782v-138h-181v-571h-151v571h-118v-571h-151v571h-181v138z" />
    <glyph glyph-name="B.extra" horiz-adv-x="613" 
d="M488 248q42 -29 67 -74.5t25 -100.5q0 -44 -17 -82.5t-46 -67t-67.5 -45t-82.5 -16.5h-322v975h292q47 0 85 -13.5t64.5 -38.5t41 -60t14.5 -78v-4q0 -31 -14 -66.5t-52 -65.5q74 -48 74 -133q0 -43 -16.5 -75.5t-45.5 -54.5zM367 -1q30 0 51 25.5t21 59.5q0 35 -21 59
t-51 24h-170v-168h170zM197 305h155q27 0 46 19t19 46t-19 45t-46 18h-155v-128zM197 571h150q27 0 46 19t19 46t-19 45t-46 18h-150v-128z" />
    <glyph glyph-name="Oslash" unicode="&#xd8;" horiz-adv-x="759" 
d="M646 695l-40 -64q57 -51 90 -123t33 -154q0 -74 -27.5 -141t-75 -117t-111.5 -79.5t-136 -29.5q-41 0 -78.5 9.5t-72.5 26.5l-35 -57l-80 50l38 61q-56 51 -88.5 123t-32.5 154q0 75 27.5 141t74.5 116t111 79t136 29q40 0 77.5 -9.5t72.5 -26.5l38 61zM181 354
q0 -42 14 -79.5t38 -66.5l217 348q-17 7 -34.5 11t-36.5 4q-41 0 -77 -17t-63 -46.5t-42.5 -69t-15.5 -84.5zM379 138q41 0 77 17t63 46.5t42.5 68.5t15.5 84q0 42 -14 79.5t-38 66.5l-217 -348q34 -14 71 -14z" />
    <glyph glyph-name="dogu" horiz-adv-x="1051" 
d="M22 372q0 103 39 194.5t107 159t159 107t195 39.5q103 0 194.5 -39.5t159 -107t107 -159t39.5 -194.5q0 -104 -39.5 -195t-107 -159t-159 -107t-194.5 -39q-104 0 -195 39t-159 107t-107 159t-39 195zM132 372q0 -81 30.5 -152t83.5 -124t124 -83.5t152 -30.5
q80 0 151 30.5t123.5 83.5t83 124t30.5 152q0 80 -30.5 151t-83 123.5t-123.5 83t-151 30.5q-81 0 -152 -30.5t-124 -83t-83.5 -123.5t-30.5 -151zM313 286v-17q-2 0 -4 5q2 -8 3.5 -13t4.5 -14q-4 2 -8 2q0 -11 3 -16t7 -6.5t7 -2t3 -3.5q-1 -2 -1 -4t-1 -4l-2 10
q-7 -3 -8 -8q3 -2 7 -5.5t4 -5.5q0 -4 -2 -4l-1 3q-3 0 -4 -2.5t-3 -4.5q8 -3 9 -3.5t1 -4.5t-1 -4t-1.5 1.5t-3.5 1.5q3 -6 4 -12l2 -12q0 -8 -1 -13q1 -2 2 -4.5t6 -2.5v1q0 -1 3.5 -2t3.5 -2t-4 -3q-2 -1 -3 -2q0 -2 3 -6q2 -3 4 -5q-4 0 -5 3q0 -4 5 -12.5t8 -18.5
q1 0 2 1q1 0 1.5 0.5t1.5 0.5q2 0 2 -3t1 -5q-7 0 -7 -7q0 -6 4.5 -6t15.5 -10q0 -2 -2 -3t-2 -3t2 -2.5t3 -0.5t2.5 1.5t3.5 1.5t4 -3t8 -3q-4 -1 -4 -5v-3q0 -1 1 -1q0 -1 -1 -4q6 -5 9.5 -10.5t5.5 -7.5q0 1 1 1t2 1q2 0 3.5 -1t3.5 -1q4 0 6.5 0.5t4.5 0.5t3 -3.5
t1 -6.5l4.5 1.5t4.5 2.5q4 -8 6 -6t4 -3q4 0 7 6q2 -5 9 -12t9 -7q2 6 7 7.5t10 1.5q0 -3 3 -4l5 7q1 -3 2 -3.5t2 -2.5q0 2 2.5 4t3.5 2q2 0 4 -1.5t3 -1.5q3 0 8.5 3.5t10.5 6.5q4 0 7 -0.5t8 -0.5q2 0 2 0.5t2 0.5q3 0 5 -2t4 -2q4 0 8 3t10 6q2 0 2 -1t1 -1q8 0 16 5
t16 12q9 8 17 18q4 4 4.5 5t0.5 7q1 0 1 -1t1 -1q2 0 8.5 10t6.5 16q0 3 -1 5l2.5 2.5t3.5 1.5q-2 2 -2.5 3.5t-1.5 2.5q4 0 10.5 9t18.5 34q2 3 5.5 12t6.5 18.5t5 18t2 11.5l-2 1v1q-2 0 -7.5 -8.5t-10.5 -18.5l-9.5 -19l-4.5 -9q3 -4 3.5 -6t2.5 -4q-7 3 -7 5q0 1 0.5 2
t0.5 3q-2 -4 -5 -5.5t-4 -1.5q-3 -3 -4 -9t-2 -9q-4 0 -10 7.5t-8 10.5l-3 -3t-3 -1q-2 -1 -3 0t-1 2v2q0 1 0.5 3t0.5 4q-2 2 -4 3t-6 1h-3t-3 -2q0 -1 0.5 -2t0.5 -3q-5 -6 -9 -10t-7.5 -7t-5.5 -3l-2 1q0 -8 -1 -9q-8 6 -12 6q-2 0 -3.5 -1.5t-4.5 -1.5q-3 14 -11.5 26.5
t-19.5 12.5q-2 0 -4.5 -1.5t-4.5 -1.5q-1 3 -3 3q-3 0 -3 -3l-4 3l-14 -5l-3.5 3.5t-3.5 1.5t-3.5 -1.5t-3.5 -1.5q-3 6 -3 9q4 7 7 10q3 -5 6 -5q5 0 16 2.5t19 8.5q2 -1 5 -1q2 0 3.5 2.5t6.5 2.5q7 0 12.5 -4t10.5 -4q0 1 1 2l2 2q4 -2 11 -5t14 -5t12 -4l5 -2q5 0 7 1
q-1 1 -3 5l-4.5 9l-4.5 9l-2 4q0 3 1 6t1 6q-1 0 -1 1q-1 1 -1 2q1 1 1.5 4t0.5 5q-2 0 -3 2t-4 2q-18 9 -27 16t-13.5 12.5t-5.5 9.5t-1 6l-6 -4.5t-6 -1.5q-2 0 -3 1q-1 0 -1 1q-5 0 -10.5 -2t-7.5 -2q-8 0 -13 5t-9 11t-8 11t-11 5q-2 0 -5 -3q3 -3 3 -2v-1
q0 -7 -9.5 -13t-9.5 -8l2 3q0 -2 1 -2.5t1 -1.5q0 -2 -1.5 -3.5t-1.5 -4.5l-2.5 2.5t-2.5 3.5q-2 -3 -8 -7.5t-13.5 -10t-14 -11t-9.5 -9.5l1 1q-5 -3 -5 -5q0 -1 0.5 -1.5t0.5 -1.5q0 -7 -0.5 -12t-0.5 -10q-3 0 -6.5 8.5t-9.5 8.5q0 5 3 7q-5 5 -6 8t-5 13q4 2 4 7
q0 1 -2 4t-2 4q0 2 2.5 2.5t2.5 4.5q-4 5 -7.5 6.5t-8.5 4.5q2 4 2 5q0 8 -6 12q-3 2 -6 3q5 6 5.5 15.5t8.5 9.5q0 1 -1 3q-1 0 -1 2q0 1 -1 1t-2 -1t-3 -1q-3 3 -5 6q-5 5 -5 8q1 1 1 2q2 0 2.5 -1t1.5 -1l3 5q0 4 -4 10l-4 6q-2 -2 -2.5 -5t-4.5 -3q-4 7 -6 5.5t-2 3.5
h4.5t3.5 3q-3 4 -3.5 5.5t-0.5 6.5q4 0 5 -3.5t6 -3.5v6v6t-2 8q8 0 9.5 2.5t13.5 2.5l-3 -5q18 -17 29.5 -20t17.5 -3q3 2 6.5 3t6.5 6q2 -2 5 -4t5 -2q0 1 -0.5 3t-0.5 3q2 0 3 1t3 2l4 2q2 0 5 -2.5t5 -3.5l2 2q2 2 5 2v-1l1 -2q-3 -2 -3 -4t-2 -7q1 -3 5 -3
q8 4 13.5 11.5t12.5 9.5q0 -3 -1 -5.5t-1 -6.5q2 0 2.5 -0.5t1.5 -0.5q4 0 5 1q-1 4 -5 5q0 1 0.5 3t3.5 2q1 0 1 -1t2 -1v1q0 1 1 1q-1 3 -2 7t-1 9q2 0 4.5 8.5t2.5 9.5q0 2 -2 4t-5 7h4q-1 1 -2 1q-2 0 -3 -1q-2 2 -4 4.5t-4 4.5l-4 4q-2 0 -4 -5t-2 -4q0 -2 1.5 -4.5
t1.5 -4.5q0 -1 -1 -3.5t-1 -4.5q0 -7 2 -8l-6 -3q-3 0 -3 3l2 4q-2 2 -2.5 5.5t-5.5 8.5q0 10 4 16t15 6q2 0 2 -1t1 -1q4 0 4 6q-1 3 -1 7q0 2 0.5 2.5t0.5 2.5q0 1 -2 7q0 2 0.5 3.5t0.5 3.5q-3 5 -7 9q-3 4 -5.5 7t-4.5 3t-2 -2t-5 -4q-1 2 -4 2.5t-5 0.5
q-11 0 -18.5 12.5t-9.5 15.5q5 0 11.5 1t6.5 8q0 5 -7 6.5t-14 8.5q4 4 3.5 9t9.5 5q2 0 2.5 -1.5t1.5 -1.5q2 0 3 5q-2 0 -4.5 2.5t-2.5 3.5q0 2 2 4.5t2 4.5t-2 6q1 1 4 1q2 0 3.5 -2.5t3.5 -4.5q4 5 2.5 9t6.5 4q2 0 2.5 -2t5.5 -4q0 1 0.5 4.5t4.5 5.5q4 0 4 -7l8 4
q4 0 5 -4q8 7 14 9q3 -8 7 -9.5t6 -1.5q1 0 2.5 0.5t3.5 0.5q5 0 9 -1t6 -5q5 1 8 1q1 0 4 -1l3 3q1 -2 5 -3q17 5 23 9.5t9.5 7.5t9 5t21.5 2q14 0 21 -7t18 -12q-2 -1 -2 -2q0 -5 4.5 -8t10.5 -5t10.5 -3t4.5 -2h-2q4 -1 8.5 -10.5t8 -20t6 -19l2.5 -8.5q0 -1 2 -2.5
t2 -3.5l-8 -14q1 0 3 -2l1 -1q-3 -2 -2 -5.5t-2 -5.5q0 -2 2 -3.5t2 -3.5h-5q2 -3 3.5 -4.5t1.5 -3.5q0 -4 -4 -6q4 -2 4 -4q-2 -2 -2 -6q0 -2 1 -3q0 -1 1 -2l-4 -5q0 -11 4.5 -17.5t4.5 -9.5l-1 -1v-2q1 -1 1 -2q3 0 5 4t3.5 9.5t2 10t0.5 5.5t-1 3t-1 5q4 8 4 12
q0 3 -1 10t-1 12q4 0 6 5q1 2 2 5q-1 0 -1 1q-1 0 -1 2v3q3 10 3 23q-7 2 -7 8q0 3 2 4q-6 2 -7 3q2 5 2.5 9.5t0.5 11.5q-2 0 -5 5.5t-6 12t-5.5 12t-3.5 5.5q1 2 3 4t2 5q0 8 -4.5 14.5t-10.5 11.5t-12 9.5t-9 9.5q-3 8 -8.5 12t-12.5 7t-14 6.5t-12 10.5q-3 -2 -6.5 -2.5
t-8.5 -2.5q2 2 2 3q-4 0 -8.5 7.5t-5.5 8.5q1 0 1 2q-2 4 -6 4q-1 0 -3 -2t-4 -2q-5 0 -6.5 6.5t-9.5 6.5l-4 -1h-3v1q0 -1 -1 -1h-3l-4 6t-6 4q-1 -1 -2.5 -1.5t-3.5 -2.5q-4 6 -9 8q0 -5 -2 -8q-5 0 -5.5 4t-1.5 6q-1 -2 -3.5 -3t-4.5 -3q-1 2 -2 3t-2 3l-6 -6l-7 4l-4 -1
t-9.5 -2t-10.5 -1.5t-7 -0.5q0 1 4 1q-5 3 -13 5.5t-13 9.5q0 -1 1 -3t1 -4q-2 2 -7 6q-2 -7 -4 -7.5l-4 -1t-3.5 -4.5t-1.5 -17q0 -2 -4 -3.5t-4 -4.5q0 -2 1 -2h3q1 0 1 1v-5q-3 0 -6.5 -0.5t-3.5 -2.5l-3 3t-2 4q-6 -5 -14.5 -14.5t-8.5 -17.5q-1 0 -1.5 1t-1.5 1
q-5 0 -11.5 -10.5t-9.5 -11.5q0 -1 0.5 -1t0.5 -1l-3.5 -2.5t-7.5 -5t-7.5 -4.5l-3.5 -2h-1q-1 0 -1 1q-4 -2 -4.5 -1.5t-0.5 -7.5q-19 -8 -21.5 -16.5t-2.5 -10.5v-6q0 -2 1 -3q-12 -12 -16.5 -19t-4.5 -12q0 -2 2.5 -4.5t2.5 -9.5q-2 1 -2.5 1.5l-2.5 2.5q0 -7 2 -9
q0 -3 -4 -3q2 -3 2 -7q0 -5 -3 -9t-5 -6q0 -5 2 -4t2 -10h-4q0 -4 3 -4.5t3 -2.5q0 -3 -2 -5t-2 -4q6 -8 6 -13q0 -3 -1 -6t-1 -6t1 -4t1 -3q-4 0 -8 -2q3 -1 5 -5t3.5 -9t2.5 -9t2 -4q0 -4 -3 -4q1 0 1 -4.5v-6.5q0 -5 -6 -11.5t-10 -6.5q1 -2 3 -3.5t2 -4.5q-1 0 -1 -1v-4
q0 -2 0.5 -3t0.5 -3h6q0 -3 1 -5.5t1 -4.5h-1q-1 0 -1 -2q0 -1 1 -2t1 -2q-1 -2 -2 -2.5t-3 -2.5l-3 -3q0 -2 3 -2h5q-2 -2 -3 -4.5t-3 -2.5l4 -8t4 -4t4 3.5t5 3.5q0 -2 -2 -2t-2 -2l2 -2l3 -3q0 -8 -4 -9t-6 -11q0 5 5 5v-2zM633 410l-2 1q0 2 10.5 5t10.5 4
q-5 0 -10.5 5.5t-10.5 5.5t-11.5 -0.5t-11.5 -0.5q-8 0 -8 4q-2 -3 -9 -7.5t-7 -9.5q0 -2 2 -4q1 -2 2.5 -3.5l3.5 -3.5q1 2 3 2.5t4 1.5q1 -2 2 -2.5t1 -1.5v-1q0 -1 -1 -5t-2 -6q0 -9 3.5 -9.5t3.5 -3.5l-1 -1q-2 -2 -2 -4q4 0 7 2.5t7 3.5q3 -2 2.5 -5.5t4.5 -5.5
q-1 3 -1 6q0 5 4 8t4 8q0 2 -1.5 4t-1.5 4t1.5 4t3.5 5zM665 454q0 2 -1 11.5t-7 9.5q-4 0 -5.5 -1.5t-2.5 -1.5q-11 8 -20 12q-1 0 -1 -1.5t-2 -1.5t-4 1.5t-4 1.5q-5 0 -8.5 -1.5t-7.5 -1.5q-3 0 -5 3q-10 -7 -15 -7.5t-5 -8.5l2 -4q0 -1 1 -1q0 -2 -1 -2q0 -3 1 -5
q3 2 4 4.5t3 2.5q3 -7 5 -7q1 0 5.5 1t5.5 1q2 -2 9 -3t9 -1l6 2q6 2 7 3q2 0 1.5 -1.5t1.5 -1.5q4 0 8.5 1t7.5 1t6 -2t6 -2zM443 450q2 -2 6.5 -1.5t4.5 -2.5q0 -5 -10 -6.5t-13 -3.5q-3 0 -4.5 1t-3.5 1q-5 0 -6 -3.5t-10 -5.5q-2 0 -4 2.5t-4 2.5q0 -6 -7 -13.5
t-10 -7.5q4 24 12 28.5t13 7.5l2 -1q5 0 7.5 3.5t17.5 3.5q4 0 9 -5zM492 331q1 0 3 1v1q1 1 4 1q1 0 2.5 -1t2.5 -1q-3 2 -4.5 4t-3.5 4q3 5 5 8t2 8q0 2 -3 4t-5 2t-5 -0.5t-3 -2.5q0 -3 9 -3q-12 -12 -18.5 -25.5t-6.5 -15.5q1 0 2 -1t2 -1q-3 -3 -5 -7q3 0 11 9.5
t10 15.5h1zM528 216q11 -1 12 -11q0 1 -4 -5q-7 0 -13 3t-11 5q6 8 16 8zM455 393q1 1 2.5 1.5t1.5 2.5t-1.5 4t-1.5 4q0 1 2 3t3 2q4 0 5.5 -5t3.5 -8l-5 -5l-5 -5q-5 0 -5 6zM739 484q0 -9 -8 -9q1 2 2 3t1 3t-1 3t-1 3q2 2 2.5 5t4.5 3v-11zM420 390q-2 0 -3 3.5t-1 5.5
q0 5 4 10l3 -14q0 -1 -0.5 -3t-2.5 -2zM357 328q0 2 5 3q-3 -2 -2.5 -3t-2.5 -4q1 0 1.5 -1t2.5 -1q1 0 2.5 1t2.5 1v-1q0 -2 1 -2q-5 0 -6 -3q-6 0 -6 6v1q0 1 2 3zM654 405q-1 0 -5 -2q-2 -1 -3 -2q0 -2 6 -6q0 2 1.5 5.5t0.5 4.5zM577 204q5 -1 6 -1.5t1 -2.5q0 -3 -3 -4
t-6 -1q2 4 2 9zM617 395q-4 0 -4 3t4 4l2 -3q0 -4 -2 -4zM463 449l1 1q6 0 6 -2v-2q0 -1 -3 -1q-4 0 -4 4zM362 88q0 -2 -0.5 -2.5t-0.5 -1.5v-1q-2 0 -2.5 1t-1.5 2v3q0 1 1 1q4 0 4 -2zM346 122h9q-2 -2 -2 -2.5t-2 -1.5q-1 1 -3 1.5t-2 2.5zM668 459q3 -4 4 -4t1 4
q-1 0 -1 1v1q-2 0 -2 -1t-2 -1zM440 399l-1 2q0 3 1 4q3 -1 3 -3q0 -1 -3 -3zM366 273h5q-1 -1 -1.5 -3t-2.5 -4q-1 0 -1 1v6zM377 399q-2 0 -2 1t-2 2q2 0 3 1t2 1h1l2 -2q-3 -2 -4 -3zM467 293q2 0 3 1t1 2l-3 6v-3.5t-1 -5.5zM397 229l-4 7q0 -5 0.5 -6t3.5 -1zM367 261
q3 -1 3 -2t-5 -1q0 3 2 3zM493 337q0 -2 2 -4l-4 -2q0 1 -0.5 1t-0.5 2q0 3 3 3zM357 70q0 -3 2 -5q1 -1 2 -1t1 1v1q0 1 -2 2t-3 2zM572 208q0 -1 1 -1h2q-2 -2 -3 -2h-1q-1 1 -1 2q1 0 1 0.5t1 0.5zM302 450q-3 0 -2.5 -1.5t-1.5 -3.5q4 3 4 5zM357 379l-2 -1v-1
q-3 0 -3 1.5t-1 2.5q2 0 2.5 -1t3.5 -1zM557 200q0 -1 1 -1q0 -1 0.5 -1t0.5 -1v-1h-2q-1 0 -2 1q-1 0 2 3zM597 417l-1 2h-1q0 1 1 1h1q2 0 2 -1v-1q0 -1 -2 -1zM434 550q0 -2 -3 -5q0 3 3 5zM505 712q0 2 -5 2l4 -2h1zM470 177q1 0 2 -2l-1 -1v-1q-1 0 -1 1t-2 1zM470 721
h-2v1q-1 0 -1 -1l3 -3v3zM362 337v-2h3q0 2 -3 2zM639 130q0 -2 2 -3q-4 0 -4 3h2zM438 507q0 -3 -2 -3v1q0 2 2 2zM726 421l-1 2l1 1q1 0 1.5 -0.5t2.5 -0.5q-4 -2 -3 -2h-1zM329 574h-1v3h2zM656 395q0 2 -3 2v-1q0 -1 3 -1zM554 714v6l-1 -2v-1q0 -3 1 -3zM321 269v-1v4
v-3zM742 458q0 -2 1 -2q0 2 -1 2zM592 386l3 -3l-2 2q-1 0 -1 1zM381 64v-1h-2v1h2zM661 143q1 -1 1 -2h-1v2zM629 88v-2l-1 2h1zM652 114l1 -2h-1v2zM478 449q1 0 1 -1h-1v1zM378 379q1 1 1 2h-1v-2zM553 277q-3 0 -3 -1zM721 399h-2q0 -1 1 -1h1v1zM495 474v-2q0 1 -0.5 1
t-0.5 1h1zM333 166q1 1 2 1l-1 -1h-1zM306 405v-1v1zM483 582q0 1 -1 1zM438 571q0 1 1 1zM445 548v2v-2z" />
    </font>
</defs>
</svg>
